开启左侧

[啊,荒野·后篇].Wilderness.Part.Two.2017.720p.BluRay.x264-WiKi[7.19G]

[复制链接]
127 5

马上注册,结交更多高清迷友,分享更多资源,让你轻松玩转社区。

您需要 登录 才可以下载或查看,没有帐号?立即注册  

x
[啊,荒野·后篇].Wilderness.Part.Two.2017.720p.BluRay.x264-WiKi   7.19G



◎译  名 啊,荒野 后篇
◎片  名 あゝ、荒野 後篇
◎年  代 2017
◎产  地 日本
◎类  别 剧情
◎语  言 日语
◎上映日期 2017-10-21(日本)
◎IMDb评分  7.6/10 from 8 users
◎IMDb链接  http://www.imdb.com/title/tt6835806/
◎豆瓣评分 8.2/10 from 651 users
◎豆瓣链接 https://movie.douban.com/subject/27030639/
◎片  长 147分钟
◎导  演 岸善幸 Yoshiyuki Kishi
◎主  演 菅田将晖 Masaki Suda
      梁益准 Yang Ik-Joon
      木下明里 Akari Kinoshita
      茂吕师冈 Moro Morooka
      高桥和也 Kazuya Takahashi
      今野杏南 Anna Konno
      山田裕贵 Yûki Yamada
      河井青叶 Aoba Kawai
      前原滉 Maeko
      萩原利久 Riku Hagiwara
      小林且弥 Katsuya Kobayashi
      川口觉 Satoru Kawaguchi
      山中崇 Takashi Yamanaka
      绪方义博 Denden
      木村多江 Tae Kimura
      中山裕介 Yusuke Santamaria
      山本浩司 Hiroshi Yamamoto
      铃木卓尔 Takuji Suzuki

◎简  介

  菅田将暉×ヤン・イクチュンW主演作『あゝ、荒野』が、10月7日(土)と10月21日(土)に、前後篇2部作連続で公開されることが決定。あわせてイメージビジュアルが公開された。本作は、1960年代後半、激動の時代において、演劇、映画、文学とマルチに活躍した寺山修司が、唯一遺した長編小説を実写化した青春ストーリー。

◎获奖情况

  第42届报知映画赏  (2017)
  最佳影片 岸善幸
  最佳男主角 菅田将晖

  1. Video

  2. ID                                       : 1

  3. Format                                   : AVC

  4. Format/Info                              : Advanced Video Codec

  5. Format profile                           : High@L4.1

  6. Format settings                          : CABAC / 9 Ref Frames

  7. Format settings, CABAC                   : Yes

  8. Format settings, ReFrames                : 9 frames

  9. Codec ID                                 : V_MPEG4/ISO/AVC

  10. Duration                                 : 2 h 29 min

  11. Bit rate                                 : 6 242 kb/s

  12. Width                                    : 1 194 pixels

  13. Height                                   : 720 pixels

  14. Display aspect ratio                     : 5:3

  15. Frame rate mode                          : Constant

  16. Frame rate                               : 23.976 (24000/1001) FPS

  17. Color space                              : YUV

  18. Chroma subsampling                       : 4:2:0

  19. Bit depth                                : 8 bits

  20. Scan type                                : Progressive

  21. Bits/(Pixel*Frame)                       : 0.303

  22. Stream size                              : 6.50 GiB (91%)

  23. Writing library                          : x264 core 129 r2245+704+36 8e61944 tMod+MixAQ [8-bit@4:2:0 X86_64]

  24. Encoding settings                        : cabac=1 / ref=9 / deblock=1:-3:-3 / analyse=0x3:0x133 / me=umh / subme=11 / psy=1 / fade_compensate=0.00 / psy_rd=1.05:0.10 / mixed_ref=1 / me_range=32 / chroma_me=1 / trellis=2 / 8x8dct=1 / cqm=0 / deadzone=21,11 / fast_pskip=0 / chroma_qp_offset=-3 / threads=18 / lookahead_threads=3 / sliced_threads=0 / nr=0 / decimate=0 / interlaced=0 / bluray_compat=0 / constrained_intra=0 / fgo=0 / bframes=10 / b_pyramid=2 / b_adapt=2 / b_bias=0 / direct=3 / weightb=1 / open_gop=0 / weightp=2 / keyint=250 / keyint_min=23 / scenecut=40 / intra_refresh=0 / rc=2pass / mbtree=0 / bitrate=6242 / ratetol=1.0 / qcomp=0.70 / qpmin=0 / qpmax=69 / qpstep=4 / cplxblur=20.0 / qblur=0.5 / ip_ratio=1.40 / pb_ratio=1.30 / aq=1 / aq-strength=0.90 / aq-sensitivity=10.00 / aq-ifactor=1.00 / aq-pfactor=1.00 / aq-bfactor=1.00 / aq2=0

  25. Language                                 : Japanese

  26. Default                                  : Yes

  27. Forced                                   : No



  28. Audio

  29. ID                                       : 2

  30. Format                                   : AC-3

  31. Format/Info                              : Audio Coding 3

  32. Codec ID                                 : A_AC3

  33. Duration                                 : 2 h 29 min

  34. Bit rate mode                            : Constant

  35. Bit rate                                 : 640 kb/s

  36. Channel(s)                               : 6 channels

  37. Channel positions                        : Front: L C R, Side: L R, LFE

  38. Sampling rate                            : 48.0 kHz

  39. Frame rate                               : 31.250 FPS (1536 SPF)

  40. Bit depth                                : 16 bits

  41. Compression mode                         : Lossy

  42. Stream size                              : 685 MiB (9%)

  43. Language                                 : Japanese

  44. Service kind                             : Complete Main

  45. Default                                  : Yes

  46. Forced                                   : No



  47. Text #1

  48. ID                                       : 3

  49. Format                                   : ASS

  50. Codec ID                                 : S_TEXT/ASS

  51. Codec ID/Info                            : Advanced Sub Station Alpha

  52. Duration                                 : 2 h 28 min

  53. Bit rate                                 : 51 b/s

  54. Count of elements                        : 1196

  55. Compression mode                         : Lossless

  56. Stream size                              : 55.7 KiB (0%)

  57. Title                                    : Simplified

  58. Language                                 : Chinese

  59. Default                                  : Yes

  60. Forced                                   : No



  61. Text #2

  62. ID                                       : 4

  63. Format                                   : ASS

  64. Codec ID                                 : S_TEXT/ASS

  65. Codec ID/Info                            : Advanced Sub Station Alpha

  66. Duration                                 : 2 h 28 min

  67. Bit rate                                 : 51 b/s

  68. Count of elements                        : 1196

  69. Compression mode                         : Lossless

  70. Stream size                              : 55.7 KiB (0%)

  71. Title                                    : Traditional

  72. Language                                 : Chinese

  73. Default                                  : No

  74. Forced                                   : No



  75. Menu

  76. 00:00:00.000                             : en:00:00:00.000

  77. 00:19:51.023                             : en:00:19:51.023

  78. 00:40:22.753                             : en:00:40:22.753

  79. 01:02:51.684                             : en:01:02:51.684

  80. 01:24:50.168                             : en:01:24:50.168

  81. 01:45:42.335                             : en:01:45:42.335

  82. 01:58:36.234                             : en:01:58:36.234

  83. 02:24:21.069                             : en:02:24:21.069
复制代码












BT种子
游客,如果您要查看本帖隐藏内容请回复



电驴链接
游客,如果您要查看本帖隐藏内容请回复

举报

回复

5 个评论

frankman  原盘  发表于 2017-12-19 05:10:42  | 显示全部楼层
~~非常感謝大大的分享~~
Zmy800729  Remux  发表于 2017-12-19 09:43:13  | 显示全部楼层



支持楼主,谢谢。
frankman  原盘  发表于 2017-12-21 05:02:05  | 显示全部楼层
~~非常感謝大大的分享~~
cjy9219  1080p  发表于 2017-12-25 08:32:28  | 显示全部楼层
那个是迷茫。。这个是成长吧
sunny5618  4K  发表于 2017-12-29 08:24:50  | 显示全部楼层
有国配就好了,这些年日本文艺作品的进口比较少了
您需要登录后才可以回帖 登录 | 立即注册  

本版积分规则

高清剧集推荐

更多

高清MV/综艺

更多

客服中心

400-800-8888 周一至周日 8:30-20:30 仅收市话费

关注我们

  • 手机客户端
  • 关注官方微信
关闭

站长推荐上一条 /1 下一条

关于我们
关于我们
友情链接
联系我们
帮助中心
网友中心
购买须知
支付方式
服务支持
资源下载
售后服务
定制流程
关注我们
官方微博
官方空间
官方微信
快速回复 返回顶部 返回列表