开启左侧

东方卫视 2018梦圆东方跨年盛典.20171231.REPEAT.1080i.DRAGON.HDTV.H.264.DD5.1-FLTTH.ts 13.5G

[复制链接]
514 7

  1. General
  2. ID                                       : 1 (0x1)
  3. Complete name                            : 2018梦圆东方跨年盛典.20171231.REPEAT.1080i.DRAGON.HDTV.H.264.DD5.1-FLTTH.ts
  4. Format                                   : MPEG-TS
  5. File size                                : 13.5 GiB
  6. Duration                                 : 4 h 23 min
  7. Overall bit rate mode                    : Variable
  8. Overall bit rate                         : 7 319 kb/s

  9. Video
  10. ID                                       : 256 (0x100)
  11. Menu ID                                  : 1 (0x1)
  12. Format                                   : AVC
  13. Format/Info                              : Advanced Video Codec
  14. Format profile                           : High@L4
  15. Format settings                          : CABAC / 2 Ref Frames
  16. Format settings, CABAC                   : Yes
  17. Format settings, RefFrames               : 2 frames
  18. Format settings, GOP                     : M=3, N=12
  19. Codec ID                                 : 27
  20. Duration                                 : 4 h 23 min
  21. Bit rate                                 : 6 311 kb/s
  22. Width                                    : 1 920 pixels
  23. Height                                   : 1 080 pixels
  24. Display aspect ratio                     : 16:9
  25. Frame rate                               : 25.000 FPS
  26. Color space                              : YUV
  27. Chroma subsampling                       : 4:2:0
  28. Bit depth                                : 8 bits
  29. Scan type                                : Interlaced
  30. Scan type, store method                  : Separated fields
  31. Scan order                               : Top Field First
  32. Bits/(Pixel*Frame)                       : 0.122
  33. Stream size                              : 11.6 GiB (86%)

  34. Audio
  35. ID                                       : 257 (0x101)
  36. Menu ID                                  : 1 (0x1)
  37. Format                                   : AC-3
  38. Format/Info                              : Audio Coding 3
  39. Codec ID                                 : 129
  40. Duration                                 : 4 h 23 min
  41. Bit rate mode                            : Constant
  42. Bit rate                                 : 640 kb/s
  43. Channel(s)                               : 6 channels
  44. Channel positions                        : Front: L C R, Side: L R, LFE
  45. Sampling rate                            : 48.0 kHz
  46. Frame rate                               : 31.250 FPS (1536 SPF)
  47. Bit depth                                : 16 bits
  48. Compression mode                         : Lossy
  49. Delay relative to video                  : -307 ms
  50. Stream size                              : 1.18 GiB (9%)
  51. Language                                 : English
  52. Service kind                             : Complete Main

  53. Menu
  54. ID                                       : 4096 (0x1000)
  55. Menu ID                                  : 1 (0x1)
  56. Duration                                 : 4 h 23 min
  57. List                                     : 256 (0x100) (AVC) / 257 (0x101) (AC-3, English)
  58. Language                                 :  / English
  59. Service name                             : DRAGON TV
  60. Service provider                         : BGCTV
  61. Service type                             : user defined

复制代码
简介:
   2017即将与我们挥手告别,跨年晚会如约而至。老板电器《梦圆东方――2018东方卫视跨年盛典》跨年晚会精彩看点:范冰冰、杨幂、黄子韬、靳东、陈伟霆、王凯、马天宇等众星集结星光璀璨;杨幂混搭张杰,靳东联合毛阿敏,费玉清+TT组合带来全新的视听感受;更有王力宏、莫文蔚、郭富城、古巨基、容祖儿等实力唱将,加上东方卫视今年创新的舞美呈现,势必带来一场极致的跨年盛宴,燃爆2017年的最后一晚。

下载地址:



本帖子中包含更多资源

您需要 登录 才可以下载或查看,没有帐号?立即注册  

x

举报

回复

7 个评论

您需要登录后才可以回帖 登录 | 立即注册  

本版积分规则

VIP会员招募,免广告,免回复,免收费下载
搜索

高清剧集推荐

更多

高清MV/综艺

更多

客服中心

400-800-8888 周一至周日 8:30-20:30 仅收市话费

关注我们

  • 手机客户端
  • 关注官方微信
关闭

站长推荐上一条 /1 下一条

关于我们
关于我们
友情链接
联系我们
帮助中心
网友中心
购买须知
支付方式
服务支持
资源下载
售后服务
定制流程
关注我们
官方微博
官方空间
官方微信
快速回复 返回顶部 返回列表