开启左侧

[BT下载]帝王蝶的迁徙 2012.DOCU.1080p.BluRay.x264.TrueHD.7.1.Atmos-SWTYBLZ 8.5G

[复制链接]
468 16
-->
◎译  名 帝王蝶的迁徙
◎片  名 Flight of the Butterflies
◎年  代 2012
◎产  地 英国/墨西哥 Mexico/加拿大 Canada
◎类  别 纪录片
◎上映日期 2012-10-01(墨西哥)
◎IMDb评分  7.2/10 from 359 users
◎IMDb链接  http://www.imdb.com/title/tt2174750/
◎豆瓣评分 8.6/10 from 60 users
◎豆瓣链接 https://movie.douban.com/subject/20399316/
◎高清迷整理 http://www.hdmee.com
◎片  长 40分钟
◎导  演 Mike Slee


◎简  介


  以震撼人心的画面以及先进的3D技术,讲述了自然界的一大奇迹--帝王蝶的迁徙。每年秋天,帝王蝶以数百万只的规模,飞越千山万水,数千公里的路程,从美国和加拿大飞到墨西哥中部的墨西哥州和米却肯州过冬,次年3月底再飞往加拿大。影片不仅用壮观的画面展现了自然界最不可思议的生物大迁徙,并且向观众展现了科学家的执着与认真,此片正是他们40多年研究结果的完美展示。


Video
ID                                       : 1
Format                                   : AVC
Format/Info                              : Advanced Video Codec
Format profile                           : High@L4.1
Format settings                          : CABAC / 4 Ref Frames
Format settings, CABAC                   : Yes
Format settings, ReFrames                : 4 frames
Codec ID                                 : V_MPEG4/ISO/AVC
Duration                                 : 44 min 13 s
Bit rate                                 : 22.2 Mb/s
Width                                    : 1 920 pixels
Height                                   : 1 080 pixels
Display aspect ratio                     : 16:9
Frame rate mode                          : Constant
Frame rate                               : 23.976 (24000/1001) FPS
Color space                              : YUV
Chroma subsampling                       : 4:2:0
Bit depth                                : 8 bits
Scan type                                : Progressive
Bits/(Pixel*Frame)                       : 0.447
Stream size                              : 6.87 GiB (80%)
Title                                    : Flight.of.the.Butterflies.2012.DOCU.1080p.BluRay.x264.TrueHD.7.1.Atmos-SWTYBLZ
Writing library                          : x264 core 148 r2748 97eaef2
Encoding settings                        : cabac=1 / ref=4 / deblock=1:-1:-1 / analyse=0x3:0x133 / me=umh / subme=10 / psy=1 / psy_rd=1.00:0.15 / mixed_ref=1 / me_range=48 / chroma_me=1 / trellis=2 / 8x8dct=1 / cqm=0 / deadzone=21,11 / fast_pskip=1 / chroma_qp_offset=-3 / threads=34 / lookahead_threads=5 / sliced_threads=0 / nr=0 / decimate=0 / interlaced=0 / bluray_compat=0 / constrained_intra=0 / bframes=8 / b_pyramid=2 / b_adapt=2 / b_bias=0 / direct=3 / weightb=1 / open_gop=0 / weightp=2 / keyint=250 / keyint_min=23 / scenecut=40 / intra_refresh=0 / rc_lookahead=60 / rc=crf / mbtree=1 / crf=16.0 / qcomp=0.60 / qpmin=0 / qpmax=69 / qpstep=4 / ip_ratio=1.40 / aq=1:1.00
Default                                  : Yes
Forced                                   : No

Audio #1
ID                                       : 2
Format                                   : TrueHD
Format profile                           : TrueHD+Atmos / TrueHD
Codec ID                                 : A_TRUEHD
Duration                                 : 44 min 13 s
Bit rate mode                            : Variable
Bit rate                                 : 4 705 kb/s
Maximum bit rate                         : 7 956 kb/s
Channel(s)                               : Object Based / 8 channels
Channel positions                        : Object Based / Front: L C R, Side: L R, Back: L R, LFE
Sampling rate                            :  / 48.0 kHz
Frame rate                               : 1 200.000 FPS (40 SPF)
Compression mode                         : Lossless
Stream size                              : 1.45 GiB (17%)
Title                                    : Flight.of.the.Butterflies.2012.DOCU.1080p.BluRay.x264.TrueHD.7.1.Atmos-SWTYBLZ
Language                                 : English
Default                                  : Yes
Forced                                   : No

Audio #2
ID                                       : 3
Format                                   : AC-3
Format/Info                              : Audio Coding 3
Codec ID                                 : A_AC3
Duration                                 : 44 min 13 s
Bit rate mode                            : Constant
Bit rate                                 : 640 kb/s
Channel(s)                               : 6 channels
Channel positions                        : Front: L C R, Side: L R, LFE
Sampling rate                            : 48.0 kHz
Frame rate                               : 31.250 FPS (1536 SPF)
Bit depth                                : 16 bits
Compression mode                         : Lossy
Stream size                              : 202 MiB (2%)
Title                                    : Flight.of.the.Butterflies.2012.DOCU.1080p.BluRay.x264.TrueHD.7.1.Atmos-SWTYBLZ
Language                                 : English
Service kind                             : Complete Main
Default                                  : No
Forced                                   : No

Text #1
ID                                       : 4
Format                                   : UTF-8
Codec ID                                 : S_TEXT/UTF8
Codec ID/Info                            : UTF-8 Plain Text
Duration                                 : 43 min 25 s
Bit rate                                 : 37 b/s
Count of elements                        : 396
Stream size                              : 12.0 KiB (0%)
Title                                    : English-SRT
Language                                 : English
Default                                  : Yes
Forced                                   : No

Text #2
ID                                       : 5
Format                                   : PGS
Muxing mode                              : zlib
Codec ID                                 : S_HDMV/PGS
Codec ID/Info                            : Picture based subtitle format used on BDs/HD-DVDs
Duration                                 : 43 min 25 s
Bit rate                                 : 21.4 kb/s
Count of elements                        : 836
Stream size                              : 6.64 MiB (0%)
Title                                    : English-PGS
Language                                 : English
Default                                  : No
Forced                                   : No

Menu
00:00:00.000                             : en:Chapter 1
00:03:00.972                             : en:Chapter 2
00:06:27.762                             : en:Chapter 3
00:09:42.290                             : en:Chapter 4
00:14:56.395                             : en:Chapter 5
00:21:03.428                             : en:Chapter 6
00:24:47.736                             : en:Chapter 7
00:28:10.730                             : en:Chapter 8
00:31:49.115                             : en:Chapter 9
00:36:04.579                             : en:Chapter 10
00:39:06.010                             : en:Chapter 11
00:42:14.907                             : en:Chapter 12






[table=98%][/table]

本帖子中包含更多资源

您需要 登录 才可以下载或查看,没有帐号?立即注册  

x

举报

回复

15 个评论

您需要登录后才可以回帖 登录 | 立即注册  

本版积分规则

高清剧集推荐

更多

高清MV/综艺

更多

客服中心

400-800-8888 周一至周日 8:30-20:30 仅收市话费

关注我们

  • 手机客户端
  • 关注官方微信
关闭

站长推荐上一条 /1 下一条

关于我们
关于我们
友情链接
联系我们
帮助中心
网友中心
购买须知
支付方式
服务支持
资源下载
售后服务
定制流程
关注我们
官方微博
官方空间
官方微信
快速回复 返回顶部 返回列表