开启左侧

[BT下载]本能.Basic Instinct.1992.US.Director's Cut.BluRay.1920x820p.x264.DTS-KOOK.[中

[复制链接]
451 8
-->本能.Basic Instinct.1992.US.Director's Cut.BluRay.1920x820p.x264.DTS-KOOK.[中英双字] 10.8GB










※※※※※※※ 影片信息 ※※※※※※※


◎片   名 Basic Instinct
◎译   名 本能 / 第六感追缉令 / 氷の微笑
◎年   代 1992
◎国   家 美国
◎类   别 爱情 / 悬疑 / 惊悚 / 情色
◎语   言 英语
◎上映日 期 1992-03-20
◎字   幕 中英双字/简体字幕/繁体字幕/英文字幕
◎IMDB 评分  6.9/10 from 146050 users
◎豆瓣 评分  7.7/10 from 90799 users
◎视频尺 寸  1920x820p
◎片   长 2.08.15
◎导   演 保罗·范霍文
◎编     剧  乔·埃泽特哈斯
◎主   演 迈克尔·道格拉斯 / 莎朗·斯通 / 乔治·杜兹达扎 / 珍妮·特里普里霍恩 / 丹尼斯·阿尔恩特







◎简  介








  旧金山警察尼克(迈克尔·道格拉斯 Michael Douglas 饰)接到命令,调查一起离奇的冰锥杀人案。一位当红的摇滚歌星被绑在床上遭人用冰锥刺杀。尼克经过调查,发现这个歌星生活糜烂,遇害前与其女友凯瑟琳(莎朗·斯通 Sharon Stone 饰)一起回家。
  凯瑟琳是 一位精明能干的畅销书作家,美丽妖艳。尼克调查中发现,凯瑟琳为了逼真刻画小说中的各色人物而与各种各样男人上床,被害摇滚歌星亦是其中之一。尼克在凯瑟琳的新书中发现了描写摇滚歌星被杀这一情节,尼克认定凯瑟琳就是凶手。
  尼克在追查过程中,渐渐迷上了美丽的凯瑟琳,尼克最终能否查出真相?




第65届奥斯卡金像奖  (1993)


最佳剪辑(提名) 弗兰克·J·乌里奥斯特
最佳原创配乐(提名) 杰瑞·高德史密斯
第16届日本电影学院奖  (1993)


最佳外语片(提名)




※※※※※※※ 参数信息 ※※※※※※※




General
Unique ID                      : 211547747956867207709211743492022872357 (0x9F269D3F3626ECF790088D7487DA2925)


Format                         : Matroska
Format version                 : Version 4 / Version 2
File size                      : 10.9 GiB
Duration                       : 2 h 8 min
Overall bit rate               : 12.1 Mb/s
Movie name                     : Basic.Instinct.1992.1080p.BluRay.x264.DTS-FGT
Encoded date                   : UTC 2018-01-15 14:36:39
Writing application            : mkvmerge v9.4.2 ('So High') 64bit
Writing library                : libebml v1.3.4 + libmatroska v1.4.5
Attachments                    : 正式海报.jpg / STKAITI.TTF


Video
ID                             : 1
Format                         : AVC
Format/Info                    : Advanced Video Codec
Format profile                 : High@L4.1
Format settings, CABAC         : Yes
Format settings, ReFrames      : 5 frames
Codec ID                       : V_MPEG4/ISO/AVC
Duration                       : 2 h 8 min
Bit rate                       : 10.6 Mb/s
Width                          : 1 920 pixels
Height                         : 820 pixels
Display aspect ratio           : 2.35:1
Frame rate mode                : Constant
Frame rate                     : 23.976 FPS
Color space                    : YUV
Chroma subsampling             : 4:2:0
Bit depth                      : 8 bits
Scan type                      : Progressive
Bits/(Pixel*Frame)             : 0.281
Stream size                    : 9.50 GiB (87%)
Writing library                : x264 core 66 r1114M a933a3e
Encoding settings              : cabac=1 / ref=5 / deblock=1:-1:-1 / analyse=0x3:0x113 / me=esa / subme=9 / psy_rd=1.4:0.2 / mixed_ref=0 / me_range=16 / chroma_me=1 / trellis=2 / 8x8dct=1 / cqm=0 / deadzone=21,11 / chroma_qp_offset=-3 / threads=6 / nr=0 / decimate=0 / mbaff=0 / bframes=4 / b_pyramid=0 / b_adapt=2 / b_bias=0 / direct=1 / wpredb=1 / keyint=250 / keyint_min=25 / scenecut=40(pre) / rc=2pass / bitrate=10600 / ratetol=1.0 / qcomp=0.60 / qpmin=10 / qpmax=51 / qpstep=4 / cplxblur=20.0 / qblur=0.5 / ip_ratio=1.40 / pb_ratio=1.30 / aq=1:0.80
Language                       : English
Default                        : Yes
Forced                         : No


Audio
ID                             : 2
Format                         : DTS
Format/Info                    : Digital Theater Systems
Mode                           : 16
Format settings, Endianness    : Big
Codec ID                       : A_DTS
Duration                       : 2 h 8 min
Bit rate mode                  : Constant
Bit rate                       : 1 510 kb/s
Channel(s)                     : 6 channels
Channel positions              : Front: L C R, Side: L R, LFE
Sampling rate                  : 48.0 kHz
Frame rate                     : 93.750 FPS (512 spf)
Bit depth                      : 24 bits
Compression mode               : Lossy
Stream size                    : 1.35 GiB (12%)
Language                       : English
Default                        : Yes
Forced                         : No


Text #1
ID                             : 3
Format                         : ASS
Codec ID                       : S_TEXT/ASS
Codec ID/Info                  : Advanced Sub Station Alpha
Duration                       : 2 h 3 min
Bit rate                       : 193 b/s
Count of elements              : 1203
Compression mode               : Lossless
Stream size                    : 174 KiB (0%)
Title                          : 中英字幕
Language                       : Chinese
Default                        : Yes
Forced                         : No


Text #2
ID                             : 4
Format                         : ASS
Codec ID                       : S_TEXT/ASS
Codec ID/Info                  : Advanced Sub Station Alpha
Duration                       : 2 h 3 min
Bit rate                       : 82 b/s
Count of elements              : 1203
Compression mode               : Lossless
Stream size                    : 74.7 KiB (0%)
Title                          : 简体字幕
Language                       : Chinese
Default                        : No
Forced                         : No


Text #3
ID                             : 5
Format                         : ASS
Codec ID                       : S_TEXT/ASS
Codec ID/Info                  : Advanced Sub Station Alpha
Duration                       : 2 h 3 min
Bit rate                       : 82 b/s
Count of elements              : 1203
Compression mode               : Lossless
Stream size                    : 74.7 KiB (0%)
Title                          : 繁体字幕
Language                       : Chinese
Default                        : No
Forced                         : No


Text #4
ID                             : 6
Format                         : ASS
Codec ID                       : S_TEXT/ASS
Codec ID/Info                  : Advanced Sub Station Alpha
Duration                       : 2 h 3 min
Bit rate                       : 148 b/s
Count of elements              : 1202
Compression mode               : Lossless
Stream size                    : 134 KiB (0%)
Title                          : 英文字幕
Language                       : English
Default                        : No
Forced                         : No


Menu
00:00:00.000                   : en:Sex Crimes
00:07:20.857                   : en:An Amateur
00:15:36.810                   : en:Written Alibi
00:21:01.009                   : en:Nothing to Hide
00:29:34.773                   : en:Innocent Test
00:35:33.005                   : en:Internal Affairs
00:40:29.176                   : en:Reckless Pursuit
00:46:48.138                   : en:Rough Edges
01:02:07.515                   : en:Playing Games
01:11:34.415                   : en:Pretty Good Beginning
01:20:44.881                   : en:Deadly Chase
01:28:39.772                   : en:Mind Manipulation
01:34:23.074                   : en:Personal Files
01:41:37.299                   : en:Researching Records
01:50:21.448                   : en:Killer Story
01:58:32.605                   : en:Happily Ever After
02:03:22.205                   : en:End Credits






[table=98%][/table]

本帖子中包含更多资源

您需要 登录 才可以下载或查看,没有帐号?立即注册  

x

举报

回复

8 个评论

您需要登录后才可以回帖 登录 | 立即注册  

本版积分规则

高清剧集推荐

更多

高清MV/综艺

更多

客服中心

400-800-8888 周一至周日 8:30-20:30 仅收市话费

关注我们

  • 手机客户端
  • 关注官方微信
关闭

站长推荐上一条 /1 下一条

关于我们
关于我们
友情链接
联系我们
帮助中心
网友中心
购买须知
支付方式
服务支持
资源下载
售后服务
定制流程
关注我们
官方微博
官方空间
官方微信
快速回复 返回顶部 返回列表