开启左侧

2018年CCTV网络春晚.20180208.1080i.CCTV3.HDTV.H.264.DD5.1-FLTTH 6.58G

[复制链接]
600 3

  1. General
  2. ID                                       : 1 (0x1)
  3. Complete name                            : 2018年CCTV网络春晚.20180208.1080i.CCTV3.HDTV.H.264.DD5.1-FLTTH.ts
  4. Format                                   : MPEG-TS
  5. File size                                : 6.58 GiB
  6. Duration                                 : 1 h 45 min
  7. Overall bit rate mode                    : Variable
  8. Overall bit rate                         : 8 952 kb/s

  9. Video
  10. ID                                       : 256 (0x100)
  11. Menu ID                                  : 1 (0x1)
  12. Format                                   : AVC
  13. Format/Info                              : Advanced Video Codec
  14. Format profile                           : High@L4
  15. Format settings                          : CABAC / 3 Ref Frames
  16. Format settings, CABAC                   : Yes
  17. Format settings, RefFrames               : 3 frames
  18. Format settings, GOP                     : M=3, N=15
  19. Codec ID                                 : 27
  20. Duration                                 : 1 h 45 min
  21. Bit rate mode                            : Constant
  22. Bit rate                                 : 7 800 kb/s
  23. Width                                    : 1 920 pixels
  24. Height                                   : 1 080 pixels
  25. Display aspect ratio                     : 16:9
  26. Frame rate                               : 25.000 FPS
  27. Color space                              : YUV
  28. Chroma subsampling                       : 4:2:0
  29. Bit depth                                : 8 bits
  30. Scan type                                : Interlaced
  31. Scan type, store method                  : Separated fields
  32. Scan order                               : Top Field First
  33. Bits/(Pixel*Frame)                       : 0.150
  34. Stream size                              : 5.92 GiB (90%)
  35. Color range                              : Limited
  36. Color primaries                          : BT.709
  37. Transfer characteristics                 : BT.709
  38. Matrix coefficients                      : BT.709

  39. Audio
  40. ID                                       : 257 (0x101)
  41. Menu ID                                  : 1 (0x1)
  42. Format                                   : AC-3
  43. Format/Info                              : Audio Coding 3
  44. Codec ID                                 : 129
  45. Duration                                 : 1 h 45 min
  46. Bit rate mode                            : Constant
  47. Bit rate                                 : 448 kb/s
  48. Channel(s)                               : 6 channels
  49. Channel positions                        : Front: L C R, Side: L R, LFE
  50. Sampling rate                            : 48.0 kHz
  51. Frame rate                               : 31.250 FPS (1536 SPF)
  52. Bit depth                                : 16 bits
  53. Compression mode                         : Lossy
  54. Delay relative to video                  : -339 ms
  55. Stream size                              : 337 MiB (5%)
  56. Language                                 : English
  57. Service kind                             : Complete Main

  58. Menu
  59. ID                                       : 4096 (0x1000)
  60. Menu ID                                  : 1 (0x1)
  61. Duration                                 : 1 h 45 min
  62. List                                     : 256 (0x100) (AVC) / 257 (0x101) (AC-3, English)
  63. Language                                 :  / English
  64. Service name                             : CCTV3
  65. Service provider                         : BGCTV
  66. Service type                             : user defined

复制代码

简介:
    以“网筑强国梦 智汇新时代”为主题的2018年CCTV网络春晚于2月8日晚20:30在央视综艺频道和央视网播出,晚会汇聚明星大咖、新生力量,融合温情科技与时代潮流,势必将为观众呈现一场互联网新时代的视听盛宴。
    今年CCTV网络春晚的嘉宾阵容强大,任贤齐、尚雯婕、周笔畅、吉克隽逸、凤凰传奇等实力唱将将悉数登台亮相,候明昊、YHBOYS、ZERO―G男团、BOYSTORY、BEJ48等新生代组合也纷纷加入,为晚会注入了新鲜血液和青春气息。
    吉克隽逸在舞台造型和视觉效果上进行了特别设计,将音乐、文化与新时代科技相结合;任贤齐与“特奥”的合作演出,也令不少网友对即将碰撞出的潮流新感观充满好奇。
    今年CCTV网络春晚将延续实时欢唱环节,奥运冠军孙杨和实力唱将周笔畅将与维和部队、前线科研人员现场连线,共同完成歌曲演唱。实时连线欢唱环节为我国尖端科技幕后英雄和全国网友搭建了互动的平台,并实现同时空不同维度,同欢乐不同感观的新年景象,展现了互联网新时代下的欢庆气氛。
    作为央视创新互动“融媒体”开年首发平台,2018年CCTV网络春晚将展示多款创新融媒体产品,同时打通电视、电脑、手机端三大平台,实现“多屏”互动,将流行元素与情感、科技紧密结合,呈现一档兼具科技感与温情的互联网属性晚会。
    网络春晚将打造以科技承载情感的舞台,实现新时代下的情感传递,将科技数据赋予温度,更能触动人心。四大科技公司的核心人物百度副总裁李震宇、科大讯飞执行总裁胡郁、搜狗首席执行官王小川、阿里云总裁胡晓明首次合体亮相,在网络春晚现场向网友们展示不同特色的智能产品,并预测中国科技对未来生活的影响。不仅如此,几位业内领军企业代表在年关将至之时也刷起了员工年终奖,在全网引起了热议和讨论,令聚焦社会话题的CCTV网络春晚的期待值再次爆表, 和全网观众一同开启了小年夜过年的新方式。

下载地址:
https://pan.baidu.com/s/1oAml9Tw

本帖子中包含更多资源

您需要 登录 才可以下载或查看,没有帐号?立即注册  

x

举报

回复

2 个评论

您需要登录后才可以回帖 登录 | 立即注册  

本版积分规则

高清剧集推荐

更多

高清MV/综艺

更多

客服中心

400-800-8888 周一至周日 8:30-20:30 仅收市话费

关注我们

  • 手机客户端
  • 关注官方微信
关闭

站长推荐上一条 /1 下一条

关于我们
关于我们
友情链接
联系我们
帮助中心
网友中心
购买须知
支付方式
服务支持
资源下载
售后服务
定制流程
关注我们
官方微博
官方空间
官方微信
快速回复 返回顶部 返回列表