开启左侧

[百度] 2018平昌冬奥会开幕式+中央电视台体育频道特别节目 Winter.Olympics.2018.Opening.Ceremony.1080i.CCTV5.HDTV.H.264.DD5.1-FLTTH.ts 30.1G

[复制链接]
135 6

  1. General
  2. ID                                       : 1 (0x1)
  3. Complete name                            : Winter.Olympics.2018.Opening.Ceremony.1080i.CCTV5.HDTV.H.264.DD5.1-FLTTH.ts
  4. Format                                   : MPEG-TS
  5. File size                                : 30.1 GiB
  6. Duration                                 : 8 h 0 min
  7. Overall bit rate mode                    : Variable
  8. Overall bit rate                         : 8 953 kb/s

  9. Video
  10. ID                                       : 256 (0x100)
  11. Menu ID                                  : 1 (0x1)
  12. Format                                   : AVC
  13. Format/Info                              : Advanced Video Codec
  14. Format profile                           : High@L4
  15. Format settings                          : CABAC / 3 Ref Frames
  16. Format settings, CABAC                   : Yes
  17. Format settings, RefFrames               : 3 frames
  18. Format settings, GOP                     : M=3, N=15
  19. Codec ID                                 : 27
  20. Duration                                 : 8 h 0 min
  21. Bit rate mode                            : Constant
  22. Bit rate                                 : 7 800 kb/s
  23. Width                                    : 1 920 pixels
  24. Height                                   : 1 080 pixels
  25. Display aspect ratio                     : 16:9
  26. Frame rate                               : 25.000 FPS
  27. Color space                              : YUV
  28. Chroma subsampling                       : 4:2:0
  29. Bit depth                                : 8 bits
  30. Scan type                                : Interlaced
  31. Scan type, store method                  : Separated fields
  32. Scan order                               : Top Field First
  33. Bits/(Pixel*Frame)                       : 0.150
  34. Stream size                              : 27.1 GiB (90%)
  35. Color range                              : Limited
  36. Color primaries                          : BT.709
  37. Transfer characteristics                 : BT.709
  38. Matrix coefficients                      : BT.709

  39. Audio
  40. ID                                       : 257 (0x101)
  41. Menu ID                                  : 1 (0x1)
  42. Format                                   : AC-3
  43. Format/Info                              : Audio Coding 3
  44. Codec ID                                 : 129
  45. Duration                                 : 8 h 0 min
  46. Bit rate mode                            : Constant
  47. Bit rate                                 : 448 kb/s
  48. Channel(s)                               : 6 channels
  49. Channel positions                        : Front: L C R, Side: L R, LFE
  50. Sampling rate                            : 48.0 kHz
  51. Frame rate                               : 31.250 FPS (1536 SPF)
  52. Bit depth                                : 16 bits
  53. Compression mode                         : Lossy
  54. Delay relative to video                  : -296 ms
  55. Stream size                              : 1.51 GiB (5%)
  56. Language                                 : English
  57. Service kind                             : Complete Main

  58. Menu
  59. ID                                       : 4096 (0x1000)
  60. Menu ID                                  : 1 (0x1)
  61. Duration                                 : 8 h 0 min
  62. List                                     : 256 (0x100) (AVC) / 257 (0x101) (AC-3, English)
  63. Language                                 :  / English
  64. Service name                             : CCTV5
  65. Service provider                         : BGCTV
  66. Service type                             : user defined

复制代码
简介:
   2018年平昌冬奥会2月9日上演了以和平和未来为主题的开幕式。历时两小时的开幕式在能够容纳3.5万人的平昌奥林匹克体育场举行,开幕式凸显了朝鲜半岛人民对和平的期待。这是韩国首次举办冬奥会。
   以“激情平昌、和谐世界”为口号的本届冬奥会,是史上规模最大的冬奥会,有来自92个国家和地区的2920名运动员参赛。开幕式以5名儿童开启寻找和平的冒险之旅为主线,这5名儿童都来自平昌市所在的江原道。数字5源于奥运五环,5名儿童服装的颜色象征着火、水、木、金、土5个元素。随后,来自92个国家和地区的运动员步入体育场。运动员入场时,自上世纪60年代至今不同时代的韩国流行音乐响彻整个体育场。

下载地址:



本帖子中包含更多资源

您需要 登录 才可以下载或查看,没有帐号?立即注册  

x
已有1人评分Me币 理由
iamchinakira + 80 +正合我意

查看全部评分 总评分:Me币 +80 

举报

回复

6 个评论

您需要登录后才可以回帖 登录 | 立即注册  

本版积分规则

高清剧集推荐

更多

高清MV/综艺

更多

客服中心

400-800-8888 周一至周日 8:30-20:30 仅收市话费

关注我们

  • 手机客户端
  • 关注官方微信
关闭

站长推荐上一条 /1 下一条

关于我们
关于我们
友情链接
联系我们
帮助中心
网友中心
购买须知
支付方式
服务支持
资源下载
售后服务
定制流程
关注我们
官方微博
官方空间
官方微信
快速回复 返回顶部 返回列表