开启左侧

2018年北京电视台元宵联欢晚会.20180302.1080i.BTV2.HDTV.H.264.DD5.1-FLTTH.ts 5.91G

[复制链接]
375 7

  1. General
  2. ID                                       : 1 (0x1)
  3. Complete name                            : 2018年北京电视台元宵联欢晚会.20180302.1080i.BTV2.HDTV.H.264.DD5.1-FLTTH.ts
  4. Format                                   : MPEG-TS
  5. File size                                : 5.91 GiB
  6. Duration                                 : 1 h 34 min
  7. Overall bit rate mode                    : Variable
  8. Overall bit rate                         : 8 935 kb/s

  9. Video
  10. ID                                       : 256 (0x100)
  11. Menu ID                                  : 1 (0x1)
  12. Format                                   : AVC
  13. Format/Info                              : Advanced Video Codec
  14. Format profile                           : High@L4
  15. Format settings                          : CABAC / 4 Ref Frames
  16. Format settings, CABAC                   : Yes
  17. Format settings, RefFrames               : 4 frames
  18. Codec ID                                 : 27
  19. Duration                                 : 1 h 34 min
  20. Bit rate                                 : 8 041 kb/s
  21. Width                                    : 1 920 pixels
  22. Height                                   : 1 080 pixels
  23. Display aspect ratio                     : 16:9
  24. Frame rate                               : 25.000 FPS
  25. Color space                              : YUV
  26. Chroma subsampling                       : 4:2:0
  27. Bit depth                                : 8 bits
  28. Scan type                                : Interlaced
  29. Scan type, store method                  : Separated fields
  30. Scan order                               : Top Field First
  31. Bits/(Pixel*Frame)                       : 0.155
  32. Stream size                              : 5.32 GiB (90%)
  33. Color range                              : Limited
  34. Color primaries                          : BT.709
  35. Transfer characteristics                 : BT.709
  36. Matrix coefficients                      : BT.709

  37. Audio
  38. ID                                       : 257 (0x101)
  39. Menu ID                                  : 1 (0x1)
  40. Format                                   : AC-3
  41. Format/Info                              : Audio Coding 3
  42. Codec ID                                 : 129
  43. Duration                                 : 1 h 34 min
  44. Bit rate mode                            : Constant
  45. Bit rate                                 : 448 kb/s
  46. Channel(s)                               : 6 channels
  47. Channel positions                        : Front: L C R, Side: L R, LFE
  48. Sampling rate                            : 48.0 kHz
  49. Frame rate                               : 31.250 FPS (1536 SPF)
  50. Bit depth                                : 16 bits
  51. Compression mode                         : Lossy
  52. Delay relative to video                  : -440 ms
  53. Stream size                              : 304 MiB (5%)
  54. Language                                 : English
  55. Service kind                             : Complete Main

  56. Menu
  57. ID                                       : 4096 (0x1000)
  58. Menu ID                                  : 1 (0x1)
  59. Duration                                 : 1 h 34 min
  60. List                                     : 256 (0x100) (AVC) / 257 (0x101) (AC-3, English)
  61. Language                                 :  / English
  62. Service name                             : BTV
  63. Service provider                         : BGCTV
  64. Service type                             : user defined

复制代码
简介:
    2018北京台元宵晚会3月2日21:03欢喜亮相,春晚原班团队倾力打造,腾格尔、霍尊惺惺相惜全新演绎“新神曲”,关晓彤、任嘉伦、大张伟、SNH48、杨钰莹、潘长江等带来精彩表演,笑星唱将齐聚在思念绵绵、人心暖暖、新意满满的元宵盛宴。

下载地址:
https://pan.baidu.com/s/1i69NlXz


本帖子中包含更多资源

您需要 登录 才可以下载或查看,没有帐号?立即注册  

x

举报

回复

7 个评论

您需要登录后才可以回帖 登录 | 立即注册  

本版积分规则

VIP会员招募,免广告,免回复,免收费下载
搜索

高清剧集推荐

更多

高清MV/综艺

更多

客服中心

400-800-8888 周一至周日 8:30-20:30 仅收市话费

关注我们

  • 手机客户端
  • 关注官方微信
关闭

站长推荐上一条 /1 下一条

关于我们
关于我们
友情链接
联系我们
帮助中心
网友中心
购买须知
支付方式
服务支持
资源下载
售后服务
定制流程
关注我们
官方微博
官方空间
官方微信
快速回复 返回顶部 返回列表