开启左侧

2018年中央电视台元宵晚会.20180302.1080i.CCTV1.HDTV.H.264-FLTTH.ts 6.17G

[复制链接]
711 10

  1. General
  2. ID                                       : 1 (0x1)
  3. Complete name                            : 2018年中央电视台元宵晚会.20180302.1080i.CCTV1.HDTV.H.264-FLTTH.ts
  4. Format                                   : MPEG-TS
  5. File size                                : 6.17 GiB
  6. Duration                                 : 1 h 49 min
  7. Overall bit rate mode                    : Variable
  8. Overall bit rate                         : 8 060 kb/s

  9. Video
  10. ID                                       : 256 (0x100)
  11. Menu ID                                  : 1 (0x1)
  12. Format                                   : AVC
  13. Format/Info                              : Advanced Video Codec
  14. Format profile                           : High@L4
  15. Format settings                          : CABAC / 2 Ref Frames
  16. Format settings, CABAC                   : Yes
  17. Format settings, RefFrames               : 2 frames
  18. Format settings, GOP                     : M=3, N=12
  19. Codec ID                                 : 27
  20. Duration                                 : 1 h 49 min
  21. Bit rate                                 : 7 532 kb/s
  22. Width                                    : 1 920 pixels
  23. Height                                   : 1 080 pixels
  24. Display aspect ratio                     : 16:9
  25. Frame rate                               : 25.000 FPS
  26. Color space                              : YUV
  27. Chroma subsampling                       : 4:2:0
  28. Bit depth                                : 8 bits
  29. Scan type                                : Interlaced
  30. Scan type, store method                  : Separated fields
  31. Scan order                               : Top Field First
  32. Bits/(Pixel*Frame)                       : 0.145
  33. Stream size                              : 5.76 GiB (93%)

  34. Audio
  35. ID                                       : 257 (0x101)
  36. Menu ID                                  : 1 (0x1)
  37. Format                                   : MPEG Audio
  38. Format version                           : Version 1
  39. Format profile                           : Layer 2
  40. Codec ID                                 : 3
  41. Duration                                 : 1 h 49 min
  42. Bit rate mode                            : Constant
  43. Bit rate                                 : 128 kb/s
  44. Channel(s)                               : 2 channels
  45. Sampling rate                            : 48.0 kHz
  46. Frame rate                               : 41.667 FPS (1152 SPF)
  47. Compression mode                         : Lossy
  48. Delay relative to video                  : -224 ms
  49. Stream size                              : 100 MiB (2%)

  50. Menu
  51. ID                                       : 4096 (0x1000)
  52. Menu ID                                  : 1 (0x1)
  53. Duration                                 : 1 h 49 min
  54. List                                     : 256 (0x100) (AVC) / 257 (0x101) (MPEG Audio)
  55. Service name                             : CCTV1
  56. Service provider                         : CCTV
  57. Service type                             : digital television

复制代码
简介:
    2018年中央电视台元宵晚会是由康辉、朱迅、任鲁豫、李思思、尼格买提等人主持的大型晚会。此次狗年元宵晚会二十个节目依旧精彩纷呈,节目类型涵盖歌舞、杂技、小品等多种形式。元宵节作为春节之后第一个重要的节日,喜庆热闹劲儿自是不输春节。在这个特殊的传统节日里,吃元宵、赏花灯、猜灯谜、逛庙会等是闹元宵必不可少的民俗。
    2018年的央视元宵晚会中,众多非物质文化遗产及中国民俗文化将被搬上舞台,呈现浓浓的民俗味儿、年俗味儿。从栩栩如生、千姿百态的福建省传统布袋木偶,到距今有120多年历史的北京鬃人;从有着一千多年历史的木版年画,到被誉为“砚界明珠”的歙砚,传承人们将对新春的祝福和期盼融进了这一个个非遗传统项目。非物质文化遗产的展现,带领观众追寻传统文化的律动,彰显了传统文化之美。这些看似古老厚重的文化元素在今天与现代生活完美结合,不禁让人拍手叫绝。




本帖子中包含更多资源

您需要 登录 才可以下载或查看,没有帐号?立即注册  

x

举报

回复

10 个评论

您需要登录后才可以回帖 登录 | 立即注册  

本版积分规则

高清剧集推荐

更多

高清MV/综艺

更多

客服中心

400-800-8888 周一至周日 8:30-20:30 仅收市话费

关注我们

  • 手机客户端
  • 关注官方微信
关闭

站长推荐上一条 /1 下一条

关于我们
关于我们
友情链接
联系我们
帮助中心
网友中心
购买须知
支付方式
服务支持
资源下载
售后服务
定制流程
关注我们
官方微博
官方空间
官方微信
快速回复 返回顶部 返回列表