开启左侧

空天猎 Sky.Hunter.2017.4K.2160p.QY.WEB-DL.x265.AAC-FLTTH.mp4 2.56G

[复制链接]
813 11

  1. General
  2. Complete name                            : Sky.Hunter.2017.4K.2160p.QY.WEB-DL.x265.AAC-FLTTH.mp4
  3. Format                                   : MPEG-4
  4. Format profile                           : Base Media
  5. Codec ID                                 : isom (isom/iso2/mp41)
  6. File size                                : 2.56 GiB
  7. Duration                                 : 1 h 55 min
  8. Overall bit rate                         : 3 182 kb/s
  9. Writing application                      : Lavf58.9.100

  10. Video
  11. ID                                       : 1
  12. Format                                   : HEVC
  13. Format/Info                              : High Efficiency Video Coding
  14. Format profile                           : Main@L5@Main
  15. Codec ID                                 : hev1
  16. Codec ID/Info                            : High Efficiency Video Coding
  17. Duration                                 : 1 h 55 min
  18. Bit rate                                 : 3 115 kb/s
  19. Width                                    : 3 840 pixels
  20. Height                                   : 1 600 pixels
  21. Display aspect ratio                     : 2.40:1
  22. Frame rate mode                          : Constant
  23. Frame rate                               : 24.000 FPS
  24. Color space                              : YUV
  25. Chroma subsampling                       : 4:2:0
  26. Bit depth                                : 8 bits
  27. Bits/(Pixel*Frame)                       : 0.021
  28. Stream size                              : 2.50 GiB (98%)

  29. Audio
  30. ID                                       : 2
  31. Format                                   : AAC
  32. Format/Info                              : Advanced Audio Codec
  33. Format profile                           : HE-AAC / LC
  34. Format settings                          : Implicit
  35. Codec ID                                 : mp4a-40-2
  36. Duration                                 : 1 h 55 min
  37. Bit rate mode                            : Constant
  38. Bit rate                                 : 62.9 kb/s
  39. Channel(s)                               : 2 channels
  40. Channel positions                        : Front: L R
  41. Sampling rate                            : 44.1 kHz / 22.05 kHz
  42. Frame rate                               : 21.533 FPS (1024 SPF)
  43. Compression mode                         : Lossy
  44. Stream size                              : 51.8 MiB (2%)
  45. Default                                  : Yes
  46. Alternate group                          : 1

复制代码
电影简介:
    《空天猎》是由中国人民解放军空军政治工作部电视艺术中心、春秋时代(霍尔果斯)影业有限公司出品的战斗剧情片,由李晨执导,李晨、范冰冰、王千源、李佳航联合主演。该片于2017年9月29日18点在中国内地上映。该片以反恐为背景,讲述了一群空军精英维护国家利益、捍卫地区和平,紧急出境联合反恐救援作战的故事。

剧情简介:
    一场空天战场的猎杀传奇,霸天狼,是一支神秘的空军顶级团队,每一名飞行员都是金头盔级别的王牌飞行员,吴迪(李晨饰)、亚莉(范冰冰饰)、巴图(郭洺宇饰)、高原(李晨浩饰)通过层层考核,成为了霸天狼秘密基地的一员。可谁也没有想到,吴迪的好友刘浩辰(李佳航饰)却在任务中陷入一场境外战乱的阴谋。更大的威胁接踵而至,恐怖势力突发其来的导弹危机和人质危机,空前地挑战着中国空军的实战能力,十万火急之下,最新式的中国战机和最顶级的飞行员,与掌握导弹密码和先进战机的敌人,在境外天空展开一场生死对决。




本帖子中包含更多资源

您需要 登录 才可以下载或查看,没有帐号?立即注册  

x

举报

回复

11 个评论

您需要登录后才可以回帖 登录 | 立即注册  

本版积分规则

高清剧集推荐

更多

高清MV/综艺

更多

客服中心

400-800-8888 周一至周日 8:30-20:30 仅收市话费

关注我们

  • 手机客户端
  • 关注官方微信
关闭

站长推荐上一条 /1 下一条

关于我们
关于我们
友情链接
联系我们
帮助中心
网友中心
购买须知
支付方式
服务支持
资源下载
售后服务
定制流程
关注我们
官方微博
官方空间
官方微信
快速回复 返回顶部 返回列表