开启左侧

[百度] 完美音调3 Pitch.Perfect.3.2017.1080p.CHSSUB.LE.WEB-DL.x264.AAC-FLTTH.mp4 3.20G

[复制链接]
662 11
本帖最后由 福利发放鸡 于 2018-5-7 20:20 编辑

  1. General
  2. Complete name                            : Pitch.Perfect.3.2017.1080p.CHSSUB.LE.WEB-DL.x264.AAC-FLTTH.mp4
  3. Format                                   : MPEG-4
  4. Format profile                           : Base Media
  5. Codec ID                                 : isom (isom/iso2/avc1/mp41)
  6. File size                                : 3.20 GiB
  7. Duration                                 : 1 h 29 min
  8. Overall bit rate                         : 5 134 kb/s
  9. Writing application                      : Lavf58.9.100

  10. Video
  11. ID                                       : 1
  12. Format                                   : AVC
  13. Format/Info                              : Advanced Video Codec
  14. Format profile                           : High@L4
  15. Format settings                          : CABAC / 4 Ref Frames
  16. Format settings, CABAC                   : Yes
  17. Format settings, RefFrames               : 4 frames
  18. Codec ID                                 : avc1
  19. Codec ID/Info                            : Advanced Video Coding
  20. Duration                                 : 1 h 29 min
  21. Bit rate                                 : 4 999 kb/s
  22. Width                                    : 1 920 pixels
  23. Height                                   : 1 040 pixels
  24. Display aspect ratio                     : 1.85:1
  25. Original display aspect ratio            : 1.85:1
  26. Frame rate mode                          : Constant
  27. Frame rate                               : 25.000 FPS
  28. Color space                              : YUV
  29. Chroma subsampling                       : 4:2:0
  30. Bit depth                                : 8 bits
  31. Scan type                                : Progressive
  32. Bits/(Pixel*Frame)                       : 0.100
  33. Stream size                              : 3.11 GiB (97%)
  34. Writing library                          : Provided by www.letv.com  :: H.264/MPEG-4 AVC codec -V 1.6.09-20151125

  35. Audio
  36. ID                                       : 2
  37. Format                                   : AAC
  38. Format/Info                              : Advanced Audio Codec
  39. Format profile                           : LC
  40. Codec ID                                 : mp4a-40-2
  41. Duration                                 : 1 h 29 min
  42. Bit rate mode                            : Constant
  43. Bit rate                                 : 128 kb/s
  44. Channel(s)                               : 2 channels
  45. Channel positions                        : Front: L R
  46. Sampling rate                            : 44.1 kHz
  47. Frame rate                               : 43.066 FPS (1024 SPF)
  48. Compression mode                         : Lossy
  49. Stream size                              : 81.7 MiB (2%)
  50. Default                                  : Yes
  51. Alternate group                          : 1

复制代码
电影简介:
    《完美音调3》(Pitch Perfect Three)是环球影业出品的《完美音调》系列电影的第三部,由伊丽莎白·班克斯执导,安娜·肯德里克、瑞贝尔·威尔森、伊丽莎白·班克斯、布兰特妮·斯诺主演,该片于2017年12月22日在美国上映。

剧情简介:
    潦倒的合唱团姐妹们一事无成,趁着美国劳军协会将在欧洲举办劳军表演,大家决定团结起来,争取获得表演的邀请。这次,她们将要挑战由鲁比·罗丝领衔的乐团。她们终于过五关斩六将,成功拿下了冠军,成就了她们一生的辉煌。

下载地址:
链接已失效!欢迎您下载其他FLTTH制作组资源。

本帖子中包含更多资源

您需要 登录 才可以下载或查看,没有帐号?立即注册  

x

举报

回复

10 个评论

您需要登录后才可以回帖 登录 | 立即注册  

本版积分规则

VIP会员招募,免广告,免回复,免收费下载
搜索

高清剧集推荐

更多

高清MV/综艺

更多

客服中心

400-800-8888 周一至周日 8:30-20:30 仅收市话费

关注我们

  • 手机客户端
  • 关注官方微信
关闭

站长推荐上一条 /1 下一条

关于我们
关于我们
友情链接
联系我们
帮助中心
网友中心
购买须知
支付方式
服务支持
资源下载
售后服务
定制流程
关注我们
官方微博
官方空间
官方微信
快速回复 返回顶部 返回列表