开启左侧

信·中国 第1期 Xin.Zhong.Guo.E01.20180309.1080i.CCTV1.HDTV.H.264-FLTTH.ts 4.03G

[复制链接]
856 7

  1. General
  2. ID                                       : 1 (0x1)
  3. Complete name                            : Xin.Zhong.Guo.E01.20180309.1080i.CCTV1.HDTV.H.264-FLTTH.ts
  4. Format                                   : MPEG-TS
  5. File size                                : 4.03 GiB
  6. Duration                                 : 1 h 11 min
  7. Overall bit rate mode                    : Variable
  8. Overall bit rate                         : 8 060 kb/s

  9. Video
  10. ID                                       : 256 (0x100)
  11. Menu ID                                  : 1 (0x1)
  12. Format                                   : AVC
  13. Format/Info                              : Advanced Video Codec
  14. Format profile                           : High@L4
  15. Format settings                          : CABAC / 2 Ref Frames
  16. Format settings, CABAC                   : Yes
  17. Format settings, RefFrames               : 2 frames
  18. Format settings, GOP                     : M=3, N=12
  19. Codec ID                                 : 27
  20. Duration                                 : 1 h 11 min
  21. Bit rate                                 : 7 533 kb/s
  22. Width                                    : 1 920 pixels
  23. Height                                   : 1 080 pixels
  24. Display aspect ratio                     : 16:9
  25. Frame rate                               : 25.000 FPS
  26. Color space                              : YUV
  27. Chroma subsampling                       : 4:2:0
  28. Bit depth                                : 8 bits
  29. Scan type                                : Interlaced
  30. Scan type, store method                  : Separated fields
  31. Scan order                               : Top Field First
  32. Bits/(Pixel*Frame)                       : 0.145
  33. Stream size                              : 3.77 GiB (93%)

  34. Audio
  35. ID                                       : 257 (0x101)
  36. Menu ID                                  : 1 (0x1)
  37. Format                                   : MPEG Audio
  38. Format version                           : Version 1
  39. Format profile                           : Layer 2
  40. Codec ID                                 : 3
  41. Duration                                 : 1 h 11 min
  42. Bit rate mode                            : Constant
  43. Bit rate                                 : 128 kb/s
  44. Channel(s)                               : 2 channels
  45. Sampling rate                            : 48.0 kHz
  46. Frame rate                               : 41.667 FPS (1152 SPF)
  47. Compression mode                         : Lossy
  48. Delay relative to video                  : -104 ms
  49. Stream size                              : 65.5 MiB (2%)

  50. Menu
  51. ID                                       : 4096 (0x1000)
  52. Menu ID                                  : 1 (0x1)
  53. Duration                                 : 1 h 11 min
  54. List                                     : 256 (0x100) (AVC) / 257 (0x101) (MPEG Audio)
  55. Service name                             : CCTV1
  56. Service provider                         : CCTV
  57. Service type                             : user defined

复制代码
节目简介:
    《信·中国》是中央电视台推出全新读信栏目,由朱军主持,2017年10月已经开启录制,黄渤、吴刚夫妇、李光洁、杨洋、王俊凯、易烊千玺、陈晓、邓伦等均已参与录制,另王源将在11月初录制。该节目于2018年3月9日20:00,CCTV-1晚间黄金档首播。
    节目中所选读的信是朱军和制作团队精心挑选出来的,从伟人、名人到重要历史时期的平凡人,通过信件让观众感受到这些人的真实存在。
    21年前,一个难得的机会让朱军登上了受人瞩目的主持舞台,近乎人生四分之一的时间里,朱军几乎每天都会收到大量的观众来信,一笔一画的真诚,让朱军感受到书信的力量。因此朱军决定做一档这样的新节目。
    节目以“信”为载体,传递的是“信仰、信念、信守、自信”的内核。节目每季选择一个书信主题,每期精选若干封“理应受到更多关注的信件”,展现了从1921年建党至今近百年来中国共产党员的书信,充满了“发现、感动、震撼、振奋”的力量!




本帖子中包含更多资源

您需要 登录 才可以下载或查看,没有帐号?立即注册  

x

举报

回复

7 个评论

您需要登录后才可以回帖 登录 | 立即注册  

本版积分规则

高清剧集推荐

更多

高清MV/综艺

更多

客服中心

400-800-8888 周一至周日 8:30-20:30 仅收市话费

关注我们

  • 手机客户端
  • 关注官方微信
关闭

站长推荐上一条 /1 下一条

关于我们
关于我们
友情链接
联系我们
帮助中心
网友中心
购买须知
支付方式
服务支持
资源下载
售后服务
定制流程
关注我们
官方微博
官方空间
官方微信
快速回复 返回顶部 返回列表