开启左侧

[BT下载]第二个夏天,不再遇见的你[内封中字]2017.720p.BluRay.x264-WiKi 4.9G

[复制链接]
171 5
-->

◎译  名 第二个夏天,不再遇见的你/第二次夏天,不再遇见的你
◎片  名 二度めの夏、二度と会えない君
◎年  代 2017
◎产  地 日本
◎类  别 爱情
◎语  言 日语
◎上映日期 2017-06-18(上海电影节)/2017-09-01(日本)
◎豆瓣评分 5.9/10 from 128 users
◎豆瓣链接 https://movie.douban.com/subject/26854323/
◎高清迷整理 http://www.hdmee.com http://www.btbtt.co
◎片  长 107分钟
◎导  演 中西健二
◎主  演 村上虹郎 Nijiro Murakami
      吉田园佳
      加藤玲奈 Rena Kato
      金城茉奈
      山田裕贵 Yki Yamada


◎简  介


  青叶北高三年级的筱原智某次在河边弹吉他时,吸引了转校生森山燐的注意。燐坚持要拉小智加入学校的乐队,并在文化祭上献歌。小智抵不住燐再三的劝说,最终答应了加入乐队的请求。经过3个月的努力练习后,演唱会成功举办,但燐却病倒了。小智站在身患不治之症即将去世的森山燐的病床前,虽告诉了燐“喜欢你”的想法,但却被拒绝。2个月后,对已经去世的森山燐有着痛苦思念而不断有罪恶感的筱原智决定将时光倒回至半年前,这次他不会再隐瞒自己的内心,一段辛酸的“第二个夏天”故事开启了……


Video
ID                                       : 1
Format                                   : AVC
Format/Info                              : Advanced Video Codec
Format profile                           : High@L4.1
Format settings                          : CABAC / 9 Ref Frames
Format settings, CABAC                   : Yes
Format settings, ReFrames                : 9 frames
Codec ID                                 : V_MPEG4/ISO/AVC
Duration                                 : 1 h 47 min
Bit rate                                 : 5 902 kb/s
Width                                    : 1 280 pixels
Height                                   : 692 pixels
Display aspect ratio                     : 1.85:1
Frame rate mode                          : Constant
Frame rate                               : 23.976 (24000/1001) FPS
Color space                              : YUV
Chroma subsampling                       : 4:2:0
Bit depth                                : 8 bits
Scan type                                : Progressive
Bits/(Pixel*Frame)                       : 0.278
Stream size                              : 4.41 GiB (90%)
Writing library                          : x264 core 129 r2245+704+36 8e61944 tMod+MixAQ [8-bit@4:2:0 X86_64]
Encoding settings                        : cabac=1 / ref=9 / deblock=1:-3:-3 / analyse=0x3:0x133 / me=umh / subme=11 / psy=1 / fade_compensate=0.00 / psy_rd=1.05:0.10 / mixed_ref=1 / me_range=64 / chroma_me=1 / trellis=2 / 8x8dct=1 / cqm=0 / deadzone=21,11 / fast_pskip=0 / chroma_qp_offset=-3 / threads=18 / lookahead_threads=3 / sliced_threads=0 / nr=0 / decimate=0 / interlaced=0 / bluray_compat=0 / constrained_intra=0 / fgo=0 / bframes=10 / b_pyramid=2 / b_adapt=2 / b_bias=0 / direct=3 / weightb=1 / open_gop=0 / weightp=2 / keyint=250 / keyint_min=23 / scenecut=40 / intra_refresh=0 / rc=2pass / mbtree=0 / bitrate=5902 / ratetol=1.0 / qcomp=0.70 / qpmin=0 / qpmax=69 / qpstep=4 / cplxblur=20.0 / qblur=0.5 / ip_ratio=1.40 / pb_ratio=1.30 / aq=1 / aq-strength=0.90 / aq-sensitivity=10.00 / aq-ifactor=1.00 / aq-pfactor=1.00 / aq-bfactor=1.00 / aq2=0
Language                                 : Japanese
Default                                  : Yes
Forced                                   : No

Audio
ID                                       : 2
Format                                   : AC-3
Format/Info                              : Audio Coding 3
Codec ID                                 : A_AC3
Duration                                 : 1 h 47 min
Bit rate mode                            : Constant
Bit rate                                 : 640 kb/s
Channel(s)                               : 6 channels
Channel positions                        : Front: L C R, Side: L R, LFE
Sampling rate                            : 48.0 kHz
Frame rate                               : 31.250 FPS (1536 SPF)
Bit depth                                : 16 bits
Compression mode                         : Lossy
Stream size                              : 490 MiB (10%)
Language                                 : Japanese
Service kind                             : Complete Main
Default                                  : Yes
Forced                                   : No

Text
ID                                       : 3
Format                                   : ASS
Codec ID                                 : S_TEXT/ASS
Codec ID/Info                            : Advanced Sub Station Alpha
Duration                                 : 1 h 42 min
Bit rate                                 : 87 b/s
Count of elements                        : 1313
Compression mode                         : Lossless
Stream size                              : 65.8 KiB (0%)
Language                                 : Chinese
Default                                  : Yes
Forced                                   : No

Menu
00:00:00.000                             : en:00:00:00.000
00:09:08.506                             : en:00:09:08.506
00:16:41.000                             : en:00:16:41.000
00:24:19.875                             : en:00:24:19.875
00:31:59.792                             : en:00:31:59.792
00:44:28.165                             : en:00:44:28.165
00:49:03.982                             : en:00:49:03.982
00:58:09.486                             : en:00:58:09.486
01:04:25.570                             : en:01:04:25.570
01:13:30.948                             : en:01:13:30.948
01:25:08.561                             : en:01:25:08.561
01:29:45.421                             : en:01:29:45.421
01:36:43.547                             : en:01:36:43.547
01:43:00.924                             : en:01:43:00.924






[table=98%][/table]

本帖子中包含更多资源

您需要 登录 才可以下载或查看,没有帐号?立即注册  

x

举报

回复

5 个评论

exceedmyself  4K  发表于 2018-3-14 01:02:28  | 显示全部楼层
谢谢楼主分享
bzj810  Remux  发表于 2018-3-14 01:05:02  | 显示全部楼层
祝福大家在此玩的开心快乐
北方记忆  Remux  发表于 2018-3-14 04:59:55  | 显示全部楼层
谢谢资源分享!
29684007  原盘  发表于 2018-3-14 08:43:30  | 显示全部楼层
谢谢楼主的分享
linkinparksum41  原盘  发表于 2018-3-14 11:22:45  来自手机  | 显示全部楼层



谢谢楼主分享
您需要登录后才可以回帖 登录 | 立即注册  

本版积分规则

高清剧集推荐

更多

高清MV/综艺

更多

客服中心

400-800-8888 周一至周日 8:30-20:30 仅收市话费

关注我们

  • 手机客户端
  • 关注官方微信
关闭

站长推荐上一条 /1 下一条

关于我们
关于我们
友情链接
联系我们
帮助中心
网友中心
购买须知
支付方式
服务支持
资源下载
售后服务
定制流程
关注我们
官方微博
官方空间
官方微信
快速回复 返回顶部 返回列表