开启左侧

[BT下载]姆明与冬日仙境 2017.720p.BluRay.x264-WiKi 4.63G

[复制链接]
211 2
-->

◎译  名 姆明与冬日仙境/姆明大电影:冬日乐园(港)
◎片  名 Muumien joulu
◎年  代 2017
◎产  地 芬兰/波兰
◎类  别 动画
◎语  言 芬兰语/英语
◎上映日期 2017-12-01(芬兰)
◎豆瓣评分 5.6/10 from 14 users
◎豆瓣链接 https://movie.douban.com/subject/27125691/
◎高清迷整理 http://www.hdmee.com http://www.btbtt.co
◎片  长 82分钟
◎导  演 Ira Carpelan / Jakub Wronski
◎主  演 比尔·斯卡斯加德 Bill Skarsgrd
      斯特兰·斯卡斯加德 Stellan Skarsgrd
      艾丽西亚·维坎德 Alicia Vikander


◎简  介


  姆明谷今年的冬季似乎不太寻常,所以姆明决定出发大冒险,而不是如常去冬眠。冒险之旅中姆明发现奇怪的生物在黑暗寒冬中雪堆奔驰,所有新的暗示出现意味着一位古怪的客人即将来临…


Video
ID                                       : 1
Format                                   : AVC
Format/Info                              : Advanced Video Codec
Format profile                           : High@L4.1
Format settings                          : CABAC / 9 Ref Frames
Format settings, CABAC                   : Yes
Format settings, ReFrames                : 9 frames
Codec ID                                 : V_MPEG4/ISO/AVC
Duration                                 : 1 h 22 min
Bit rate                                 : 7 388 kb/s
Width                                    : 1 280 pixels
Height                                   : 720 pixels
Display aspect ratio                     : 16:9
Frame rate mode                          : Constant
Frame rate                               : 24.000 FPS
Color space                              : YUV
Chroma subsampling                       : 4:2:0
Bit depth                                : 8 bits
Scan type                                : Progressive
Bits/(Pixel*Frame)                       : 0.334
Stream size                              : 4.26 GiB (92%)
Writing library                          : x264 core 129 r2245+704+36 8e61944 tMod+MixAQ [8-bit@4:2:0 X86_64]
Encoding settings                        : cabac=1 / ref=9 / deblock=1:-3:-3 / analyse=0x3:0x133 / me=umh / subme=11 / psy=1 / fade_compensate=0.00 / psy_rd=1.05:1.00 / mixed_ref=1 / me_range=32 / chroma_me=1 / trellis=2 / 8x8dct=1 / cqm=0 / deadzone=21,11 / fast_pskip=0 / chroma_qp_offset=-4 / threads=18 / lookahead_threads=3 / sliced_threads=0 / nr=0 / decimate=0 / interlaced=0 / bluray_compat=0 / constrained_intra=0 / fgo=0 / bframes=10 / b_pyramid=2 / b_adapt=2 / b_bias=0 / direct=3 / weightb=1 / open_gop=0 / weightp=2 / keyint=250 / keyint_min=24 / scenecut=40 / intra_refresh=0 / rc_lookahead=50 / rc=2pass / mbtree=1 / bitrate=7388 / ratetol=1.0 / qcomp=0.70 / qpmin=0 / qpmax=69 / qpstep=4 / cplxblur=20.0 / qblur=0.5 / ip_ratio=1.40 / aq=1 / aq-strength=0.80 / aq-sensitivity=10.00 / aq-ifactor=1.00 / aq-pfactor=1.00 / aq-bfactor=1.00 / aq2=0
Language                                 : English
Default                                  : Yes
Forced                                   : No
Color range                              : Limited
Matrix coefficients                      : BT.709

Audio
ID                                       : 2
Format                                   : AC-3
Format/Info                              : Audio Coding 3
Codec ID                                 : A_AC3
Duration                                 : 1 h 22 min
Bit rate mode                            : Constant
Bit rate                                 : 640 kb/s
Channel(s)                               : 6 channels
Channel positions                        : Front: L C R, Side: L R, LFE
Sampling rate                            : 48.0 kHz
Frame rate                               : 31.250 FPS (1536 SPF)
Bit depth                                : 16 bits
Compression mode                         : Lossy
Stream size                              : 378 MiB (8%)
Language                                 : English
Service kind                             : Complete Main
Default                                  : Yes
Forced                                   : No

Menu
00:00:00.000                             : en:00:00:00.000
00:07:06.458                             : en:00:07:06.458
00:13:09.708                             : en:00:13:09.708
00:21:32.916                             : en:00:21:32.916
00:26:22.625                             : en:00:26:22.625
00:35:26.708                             : en:00:35:26.708
00:41:54.250                             : en:00:41:54.250
00:49:08.541                             : en:00:49:08.541
00:54:11.541                             : en:00:54:11.541
01:01:05.791                             : en:01:01:05.791
01:07:37.041                             : en:01:07:37.041
01:14:52.000                             : en:01:14:52.000






[table=98%][/table]

本帖子中包含更多资源

您需要 登录 才可以下载或查看,没有帐号?立即注册  

x

举报

回复

2 个评论

casarss001  Remux  发表于 2018-3-16 10:04:36  | 显示全部楼层
非常感谢楼主分恩熙欧美动画片电影资源
casarss001  Remux  发表于 2018-3-16 10:07:36  | 显示全部楼层
非常感谢楼主分享欧美动画片电影资源
您需要登录后才可以回帖 登录 | 立即注册  

本版积分规则

高清剧集推荐

更多

高清MV/综艺

更多

客服中心

400-800-8888 周一至周日 8:30-20:30 仅收市话费

关注我们

  • 手机客户端
  • 关注官方微信
关闭

站长推荐上一条 /1 下一条

关于我们
关于我们
友情链接
联系我们
帮助中心
网友中心
购买须知
支付方式
服务支持
资源下载
售后服务
定制流程
关注我们
官方微博
官方空间
官方微信
快速回复 返回顶部 返回列表