开启左侧

[BT下载]宣告黎明的露之歌 2017.720p.BluRay.x264.DTS-HDC 6.28G

[复制链接]
136 1
-->

◎译  名 宣告黎明的露之歌/宣告黎明的人鱼之歌(港)
◎片  名 夜明け告げるルーのうた
◎年  代 2017
◎产  地 日本
◎类  别 剧情/动画/奇幻
◎语  言 日语
◎上映日期 2017-05-19(日本)
◎豆瓣评分 8.0/10 from 6,384 users
◎豆瓣链接 https://movie.douban.com/subject/26958502/
◎高清迷整理 http://www.hdmee.com http://www.btbtt.co
◎片  长 112分钟
◎导  演 汤浅政明 Masaaki Yuasa
◎主  演 谷花音 Tani Kanon
      下田翔大 Shota Shimoda
      篠原信一 Shin'ichi Shinohara
      柄本明 Akira Emoto
      齐藤壮马 Souma Saito
      寿美菜子 Minako Kotobuki
      大悟 Daigo


◎简  介


  父亲和母亲离婚之后,少年凯(下田翔大 配音)跟随着父亲返回了依山傍海的老家,和以做伞为业的祖父一起开始了新的生活。家庭的变故让凯闷闷不乐,只有在编曲的时候,凯才能够找回一点点久违的快乐。游步(寿美菜子 配音)和国夫(齐藤壮马 配音)发现了凯的音乐才华,热情的邀请他加入他们的乐队“塞壬”。
  某天夜里,凯所演奏的乐曲吸引来了一只名为露(谷花音 配音)的人鱼,很快的,露和凯便成为了朋友。可是,在村子里,人鱼是不祥的象征,它们的出现往往预示着灾难和死亡。终于,露的身份还是曝光了,小镇上的居民们很快便分为了两派,一派被露天真无邪的舞姿所打动,而另一派则坚决的想要将人鱼驱逐出人类的世界。


Video
ID                                       : 1
Format                                   : AVC
Format/Info                              : Advanced Video Codec
Format profile                           : High@L4.1
Format settings                          : CABAC / 9 Ref Frames
Format settings, CABAC                   : Yes
Format settings, ReFrames                : 9 frames
Codec ID                                 : V_MPEG4/ISO/AVC
Duration                                 : 1 h 51 min
Bit rate                                 : 6 525 kb/s
Width                                    : 1 280 pixels
Height                                   : 720 pixels
Display aspect ratio                     : 16:9
Frame rate mode                          : Constant
Frame rate                               : 23.976 (24000/1001) FPS
Color space                              : YUV
Chroma subsampling                       : 4:2:0
Bit depth                                : 8 bits
Scan type                                : Progressive
Bits/(Pixel*Frame)                       : 0.295
Stream size                              : 5.10 GiB (81%)
Title                                    : Lu.Over.the.Wall.2017.JAPANESE.720p.BluRay.x264.DTS-HDC
Writing library                          : x264 core 148 r2744kMod b97ae06
Encoding settings                        : cabac=1 / ref=9 / deblock=1:-1:-1 / analyse=0x3:0x133 / me=umh / subme=11 / psy=1 / fade_compensate=0.00 / psy_rd=0.80:0.00 / mixed_ref=1 / me_range=48 / chroma_me=1 / trellis=2 / 8x8dct=1 / cqm=0 / deadzone=21,11 / fast_pskip=0 / chroma_qp_offset=-2 / threads=12 / lookahead_threads=2 / sliced_threads=0 / nr=0 / decimate=0 / interlaced=0 / bluray_compat=0 / constrained_intra=0 / bframes=8 / b_pyramid=2 / b_adapt=2 / b_bias=0 / direct=3 / weightb=1 / open_gop=0 / weightp=2 / keyint=240 / keyint_min=2 / scenecut=40 / intra_refresh=0 / rc_lookahead=60 / rc=crf / mbtree=0 / crf=16.5000 / qcomp=0.70 / qpmin=0 / qpmax=69 / qpstep=4 / vbv_maxrate=50000 / vbv_bufsize=30000 / crf_max=0.0 / nal_hrd=none / filler=0 / ip_ratio=1.30 / pb_ratio=1.20 / aq=3:1.10
Default                                  : Yes
Forced                                   : No

Audio
ID                                       : 2
Format                                   : DTS
Format/Info                              : Digital Theater Systems
Codec ID                                 : A_DTS
Duration                                 : 1 h 51 min
Bit rate mode                            : Constant
Bit rate                                 : 1 509 kb/s
Channel(s)                               : 6 channels
Channel positions                        : Front: L C R, Side: L R, LFE
Sampling rate                            : 48.0 kHz
Frame rate                               : 93.750 FPS (512 SPF)
Bit depth                                : 24 bits
Compression mode                         : Lossy
Stream size                              : 1.18 GiB (19%)
Title                                    : Lu.Over.the.Wall.2017.JAPANESE.720p.BluRay.x264.DTS-HDC
Language                                 : Japanese
Default                                  : Yes
Forced                                   : No

Text
ID                                       : 3
Format                                   : UTF-8
Codec ID                                 : S_TEXT/UTF8
Codec ID/Info                            : UTF-8 Plain Text
Duration                                 : 1 h 50 min
Bit rate                                 : 46 b/s
Count of elements                        : 1382
Stream size                              : 37.7 KiB (0%)
Language                                 : English
Default                                  : Yes
Forced                                   : No





[table=98%][/table]

本帖子中包含更多资源

您需要 登录 才可以下载或查看,没有帐号?立即注册  

x

举报

回复

1 个评论

casarss001  Remux  发表于 2018-3-16 10:04:17  | 显示全部楼层
非常感谢楼主分恩熙欧美动画片电影资源
您需要登录后才可以回帖 登录 | 立即注册  

本版积分规则

高清剧集推荐

更多

高清MV/综艺

更多

客服中心

400-800-8888 周一至周日 8:30-20:30 仅收市话费

关注我们

  • 手机客户端
  • 关注官方微信
关闭

站长推荐上一条 /1 下一条

关于我们
关于我们
友情链接
联系我们
帮助中心
网友中心
购买须知
支付方式
服务支持
资源下载
售后服务
定制流程
关注我们
官方微博
官方空间
官方微信
快速回复 返回顶部 返回列表