开启左侧

[BT下载]呆呆计划 Foolish.Plan.2016.720p.BluRay.x264-WiKi 4.07G

[复制链接]
175 0
-->



◎译  名 槑计划
◎片  名 呆呆计划
◎年  代 2016
◎产  地 中国大陆
◎类  别 剧情/喜剧/犯罪
◎语  言 汉语普通话
◎上映日期 2016-12-09(中国大陆)
◎豆瓣评分 3.5/10 from 1,184 users
◎豆瓣链接 https://movie.douban.com/subject/26910800/
◎高清迷整理 http://www.hdmee.com http://www.btbtt.co
◎片  长 88分钟
◎导  演 森岛 Dao Seng
◎主  演 陈小春 Jordan Chan
      邓家佳 Jiajia Deng
      汪东城  Jiro Wang
      李凡秀 Beom-su Lee
      吴启华 Lawrence Ng
      张小觉 Xiaojue Zhang
      徐鸥仪
      朴文熙
      郭云飞 Yunfei Guo
      卢晋杰 Jinjie Lu
      单宝中 Baozhong Shan
      何军 Jun He
      朱丹青 Danqing Zhu


◎简  介


  郁郁不得志的赌场洗码仔梅大志(陈小春 饰)因妻子安静(邓家佳 饰)和萍水相逢的蜜月夫妇郝东东(汪东城 饰)和菓菓(张小觉 饰)欠下了巨额赌债,又因为安静的姐姐安宁(徐欧仪 饰)和她的学生仔仔,卷入了一块价值连城的宝物龙凤镜的生死争夺中。
  与此同时,香港黑道富商白楚雄(吴启华 饰)、黑老大十三幺、济州岛韩国黑帮、好赌欠债的业余杀手车基范(李凡秀 饰)也加入到命运的漩涡中,众人开始了一场围绕龙凤镜,充满荒诞色彩的夺宝大战。深陷其中的众人将如何破局而出……环环深入,结局已经不能用出乎意料来形容!


Video
ID                                       : 1
Format                                   : AVC
Format/Info                              : Advanced Video Codec
Format profile                           : High@L4.1
Format settings                          : CABAC / 12 Ref Frames
Format settings, CABAC                   : Yes
Format settings, ReFrames                : 12 frames
Codec ID                                 : V_MPEG4/ISO/AVC
Duration                                 : 1 h 26 min
Bit rate                                 : 6 100 kb/s
Width                                    : 1 280 pixels
Height                                   : 544 pixels
Display aspect ratio                     : 2.35:1
Frame rate mode                          : Constant
Frame rate                               : 24.000 FPS
Color space                              : YUV
Chroma subsampling                       : 4:2:0
Bit depth                                : 8 bits
Scan type                                : Progressive
Bits/(Pixel*Frame)                       : 0.365
Stream size                              : 3.68 GiB (90%)
Title                                    : Foolish.Plan.2016.720p.BluRay.x264-WiKi
Writing library                          : x264 core 129 r2245 bc13772
Encoding settings                        : cabac=1 / ref=12 / deblock=1:-3:-3 / analyse=0x3:0x133 / me=umh / subme=11 / psy=1 / psy_rd=1.05:0.05 / mixed_ref=1 / me_range=32 / chroma_me=1 / trellis=2 / 8x8dct=1 / cqm=0 / deadzone=21,11 / fast_pskip=0 / chroma_qp_offset=-3 / threads=12 / lookahead_threads=2 / sliced_threads=0 / nr=0 / decimate=1 / interlaced=0 / bluray_compat=0 / constrained_intra=0 / bframes=8 / b_pyramid=2 / b_adapt=2 / b_bias=0 / direct=3 / weightb=1 / open_gop=0 / weightp=2 / keyint=250 / keyint_min=24 / scenecut=40 / intra_refresh=0 / rc_lookahead=60 / rc=2pass / mbtree=1 / bitrate=6100 / ratetol=1.0 / qcomp=0.60 / qpmin=0 / qpmax=69 / qpstep=4 / cplxblur=20.0 / qblur=0.5 / ip_ratio=1.40 / aq=1:0.65
Language                                 : English
Default                                  : Yes
Forced                                   : No

Audio
ID                                       : 2
Format                                   : AC-3
Format/Info                              : Audio Coding 3
Codec ID                                 : A_AC3
Duration                                 : 1 h 26 min
Bit rate mode                            : Constant
Bit rate                                 : 640 kb/s
Channel(s)                               : 6 channels
Channel positions                        : Front: L C R, Side: L R, LFE
Sampling rate                            : 48.0 kHz
Frame rate                               : 31.250 FPS (1536 SPF)
Bit depth                                : 16 bits
Compression mode                         : Lossy
Stream size                              : 396 MiB (9%)
Title                                    : Foolish.Plan.2016.720p.BluRay.x264-WiKi
Language                                 : Chinese
Service kind                             : Complete Main
Default                                  : Yes
Forced                                   : No

Text #1
ID                                       : 3
Format                                   : UTF-8
Codec ID                                 : S_TEXT/UTF8
Codec ID/Info                            : UTF-8 Plain Text
Duration                                 : 1 h 20 min
Bit rate                                 : 41 b/s
Count of elements                        : 1104
Stream size                              : 24.3 KiB (0%)
Language                                 : English
Default                                  : Yes
Forced                                   : Yes

Text #2
ID                                       : 4
Format                                   : UTF-8
Codec ID                                 : S_TEXT/UTF8
Codec ID/Info                            : UTF-8 Plain Text
Duration                                 : 1 h 20 min
Bit rate                                 : 33 b/s
Count of elements                        : 1107
Stream size                              : 19.9 KiB (0%)
Language                                 : Chinese
Default                                  : No
Forced                                   : No

Text #3
ID                                       : 5
Format                                   : UTF-8
Codec ID                                 : S_TEXT/UTF8
Codec ID/Info                            : UTF-8 Plain Text
Duration                                 : 1 h 20 min
Bit rate                                 : 33 b/s
Count of elements                        : 1107
Stream size                              : 19.9 KiB (0%)
Language                                 : Chinese
Default                                  : No
Forced                                   : No





[table=98%][/table]

本帖子中包含更多资源

您需要 登录 才可以下载或查看,没有帐号?立即注册  

x

举报

回复
您需要登录后才可以回帖 登录 | 立即注册  

本版积分规则

高清剧集推荐

更多

高清MV/综艺

更多

客服中心

400-800-8888 周一至周日 8:30-20:30 仅收市话费

关注我们

  • 手机客户端
  • 关注官方微信
关闭

站长推荐上一条 /1 下一条

关于我们
关于我们
友情链接
联系我们
帮助中心
网友中心
购买须知
支付方式
服务支持
资源下载
售后服务
定制流程
关注我们
官方微博
官方空间
官方微信
快速回复 返回顶部 返回列表