开启左侧

2018年中央电视台春节联欢晚会(重播版).1080i.HC.CCTV1.HDTV.H.264.DD5.1-FLTTH.ts 30.2G

[复制链接]
839 16

  1. General
  2. ID                                       : 1 (0x1)
  3. Complete name                            : 2018年中央电视台春节联欢晚会.REPEAT.1080i.HC.CCTV1.HDTV.H.264.DD5.1-FLTTH.ts
  4. Format                                   : MPEG-TS
  5. File size                                : 30.2 GiB
  6. Duration                                 : 4 h 59 min
  7. Overall bit rate mode                    : Variable
  8. Overall bit rate                         : 14.4 Mb/s

  9. Video
  10. ID                                       : 256 (0x100)
  11. Menu ID                                  : 1 (0x1)
  12. Format                                   : AVC
  13. Format/Info                              : Advanced Video Codec
  14. Format profile                           : High@L4.1
  15. Format settings                          : CABAC / 2 Ref Frames
  16. Format settings, CABAC                   : Yes
  17. Format settings, RefFrames               : 2 frames
  18. Format settings, GOP                     : M=3, N=30
  19. Codec ID                                 : 27
  20. Duration                                 : 4 h 59 min
  21. Bit rate mode                            : Variable
  22. Bit rate                                 : 13.3 Mb/s
  23. Maximum bit rate                         : 19.4 Mb/s
  24. Width                                    : 1 920 pixels
  25. Height                                   : 1 080 pixels
  26. Display aspect ratio                     : 16:9
  27. Frame rate                               : 25.000 FPS
  28. Color space                              : YUV
  29. Chroma subsampling                       : 4:2:0
  30. Bit depth                                : 8 bits
  31. Scan type                                : Interlaced
  32. Scan type, store method                  : Separated fields
  33. Scan order                               : Top Field First
  34. Bits/(Pixel*Frame)                       : 0.256
  35. Stream size                              : 27.8 GiB (92%)

  36. Audio
  37. ID                                       : 257 (0x101)
  38. Menu ID                                  : 1 (0x1)
  39. Format                                   : AC-3
  40. Format/Info                              : Audio Coding 3
  41. Codec ID                                 : 129
  42. Duration                                 : 4 h 59 min
  43. Bit rate mode                            : Constant
  44. Bit rate                                 : 448 kb/s
  45. Channel(s)                               : 6 channels
  46. Channel positions                        : Front: L C R, Side: L R, LFE
  47. Sampling rate                            : 48.0 kHz
  48. Frame rate                               : 31.250 FPS (1536 SPF)
  49. Bit depth                                : 16 bits
  50. Compression mode                         : Lossy
  51. Delay relative to video                  : -1 s 40 ms
  52. Stream size                              : 959 MiB (3%)
  53. Service kind                             : Complete Main

  54. Menu
  55. ID                                       : 4096 (0x1000)
  56. Menu ID                                  : 1 (0x1)
  57. Duration                                 : 4 h 59 min
  58. List                                     : 256 (0x100) (AVC) / 257 (0x101) (AC-3)
  59. Service name                             : CCTV1-HD
  60. Service provider                         : CCTV
  61. Service type                             : digital television

复制代码


简介:
    《2018年中央电视台春节联欢晚会》(简称:2018年央视狗年春晚)是中央电视台制作播出的大型综艺性文艺晚会。总导演为杨东升。晚会以中央电视台一号演播厅为主会场,广东珠海、山东曲阜、泰安、海南三亚、贵州省黔东南州黎平县肇兴侗寨为分会场。
    晚会主会场由康辉、朱迅、任鲁豫、李思思、尼格买提·热合曼主持,贵州黔东南分会场由马跃、窦爱莉主持,广东珠海分会场由杨帆、桂嘉晨主持,山东曲阜、泰安分会场由李佳明、李毅主持,海南三亚分会场由张泽群、王丝主持。
    晚会以“喜庆新时代、共筑中国梦”为主题,荟萃歌曲、舞蹈、戏曲、小品、相声、武术、杂技等艺术形式,集聚中外艺术家的精彩表演,生动展示中国共产党第十八次全国代表大会以来中国共产党和中国国家事业的历史性成就、历史性变革,展望决胜全面建成小康社会、全面建设社会主义现代化国家的光明前景,弘扬中国精神、中国价值、中国力量。晚会突出时代特色、地域元素、文化内涵,烘托全民大联欢、普天同喜庆的浓厚氛围,唱响全国各族人民同心奋进新时代、满怀豪情迎新春的昂扬旋律。
    晚会于2018年2月15日(农历丁酉年十二月三十)直播。



下载地址:
https://pan.baidu.com/s/1px0ZWg37JSIGFfhTCETp9Q
CCTV-1重播高码率版本(REPEAT+HC),含语言类节目字幕 :)
请同时下载part1和part2两个文件以解压!

解压密码:
中国共产党领导中国人民开辟的中国特色社会主义道路是正确的,必须长期坚持、永不动摇


本帖子中包含更多资源

您需要 登录 才可以下载或查看,没有帐号?立即注册  

x

举报

回复

16 个评论

wify  576p  发表于 2018-4-9 09:50:00  | 显示全部楼层
今年体积最大的资源。
歌华有线称它在4K栏目以4K信号播放了,不知有没有人捕捉到?
福利发放鸡  原盘  发表于 2018-4-9 17:59:46  | 显示全部楼层
wify 发表于 2018-4-9 09:50
今年体积最大的资源。
歌华有线称它在4K栏目以4K信号播放了,不知有没有人捕捉到?

歌华有光纤的话 私我 可以试着抓一下。
wify  576p  发表于 2018-4-10 08:53:02  | 显示全部楼层
感谢回复。估计只能是询问往事。歌华可能是当天播送了。而它的节目给受众保留期限很短。它的网络信号进用户仍然走的是有线电缆,虽然它在大街上走线还是光纤。我没上它的网,上的是联通网。
福利发放鸡  原盘  发表于 2018-4-10 11:57:20  | 显示全部楼层
wify 发表于 2018-4-10 08:53
感谢回复。估计只能是询问往事。歌华可能是当天播送了。而它的节目给受众保留期限很短。它的网络信号进用户 ...

有线不好抓源。得上几个思科的企业级产品才能抓,好几万得。这开销太大了咱们普通人玩儿不起。
现在是不是没了?

方桐  Remux  发表于 2018-4-11 10:56:30  | 显示全部楼层
中国共产党领导中国人民开辟的中国特色社会主义道路是正确的,必须长期坚持、永不动摇
wify  576p  发表于 2018-4-11 13:31:13  | 显示全部楼层
福利发放鸡 发表于 2018-4-10 11:57
有线不好抓源。得上几个思科的企业级产品才能抓,好几万得。这开销太大了咱们普通人玩儿不起。
现在是不 ...

除夕当天我根本不知道。也不知歌华4k频道什么用户能看。因为我没有4K电视机。是歌华近日在网站自吹文章里写的。以业外平民的眼光,猜测,也许一年以后不新鲜了,会流出来吧?
你不会懂  720p  发表于 2018-4-11 22:48:50  | 显示全部楼层
竟然还有这东西,都过去一个多月了,,,现在的央视作品也就那样,没有新意。
您需要登录后才可以回帖 登录 | 立即注册  

本版积分规则

高清剧集推荐

更多

高清MV/综艺

更多

客服中心

400-800-8888 周一至周日 8:30-20:30 仅收市话费

关注我们

  • 手机客户端
  • 关注官方微信
关闭

站长推荐上一条 /1 下一条

关于我们
关于我们
友情链接
联系我们
帮助中心
网友中心
购买须知
支付方式
服务支持
资源下载
售后服务
定制流程
关注我们
官方微博
官方空间
官方微信
快速回复 返回顶部 返回列表