开启左侧

[百度] 跳出我天地 Billy.Elliot.2000.1080p.CHSSUB.QY.WEB-DL.x264.AAC-FLTTH.mp4 2.12G

[复制链接]
524 10

  1. General
  2. Complete name                            : Billy.Elliot.2000.1080p.CHSSUB.QY.WEB-DL.x264.AAC-FLTTH.mp4
  3. Format                                   : MPEG-4
  4. Format profile                           : Base Media
  5. Codec ID                                 : isom (isom/iso2/avc1/mp41)
  6. File size                                : 2.12 GiB
  7. Duration                                 : 1 h 50 min
  8. Overall bit rate                         : 2 742 kb/s
  9. Writing application                      : Lavf58.9.100

  10. Video
  11. ID                                       : 1
  12. Format                                   : AVC
  13. Format/Info                              : Advanced Video Codec
  14. Format profile                           : High@L4
  15. Format settings                          : CABAC / 3 Ref Frames
  16. Format settings, CABAC                   : Yes
  17. Format settings, RefFrames               : 3 frames
  18. Codec ID                                 : avc1
  19. Codec ID/Info                            : Advanced Video Coding
  20. Duration                                 : 1 h 50 min
  21. Bit rate                                 : 2 544 kb/s
  22. Width                                    : 1 920 pixels
  23. Height                                   : 1 080 pixels
  24. Display aspect ratio                     : 16:9
  25. Frame rate mode                          : Variable
  26. Frame rate                               : 23.976 (24000/1001) FPS
  27. Minimum frame rate                       : 23.641 FPS
  28. Maximum frame rate                       : 24.814 FPS
  29. Color space                              : YUV
  30. Chroma subsampling                       : 4:2:0
  31. Bit depth                                : 8 bits
  32. Scan type                                : Progressive
  33. Bits/(Pixel*Frame)                       : 0.051
  34. Stream size                              : 1.97 GiB (93%)
  35. Color range                              : Limited
  36. Color primaries                          : BT.709
  37. Transfer characteristics                 : BT.709
  38. Matrix coefficients                      : BT.709

  39. Audio
  40. ID                                       : 2
  41. Format                                   : AAC
  42. Format/Info                              : Advanced Audio Codec
  43. Format profile                           : LC
  44. Codec ID                                 : mp4a-40-2
  45. Duration                                 : 1 h 50 min
  46. Bit rate mode                            : Constant
  47. Bit rate                                 : 192 kb/s
  48. Channel(s)                               : 2 channels
  49. Channel positions                        : Front: L R
  50. Sampling rate                            : 44.1 kHz
  51. Frame rate                               : 43.066 FPS (1024 SPF)
  52. Compression mode                         : Lossy
  53. Stream size                              : 151 MiB (7%)
  54. Default                                  : Yes
  55. Alternate group                          : 1

复制代码
电影简介:
    《跳出我天地》是United International Pictures 公司发行的剧情片,由 史蒂芬·戴德利导演,李·霍尔担任编剧,杰米·贝尔,朱丽·沃特斯等主演。该片于2000年9月29日在英国上映。该片以1984年英国矿业工人大罢工为背景,讲述了11岁的矿工之子比利·艾略特冲破重重阻力勇敢追求心中理想的故事。


剧情简介:
    11岁的小男孩比利·艾略特(杰米·贝尔饰)是一位煤矿工人的儿子,从小就和他的父亲、兄长生活在英国的北部小镇。他每周要去上拳击训练课。一天,在上训练课时,他偶然接触了芭蕾舞,这美奂绝伦的艺术立刻深深地迷住了他,而这个男孩也让严厉的芭蕾指导老师威尔金森夫人(朱莉·沃尔特斯饰)眼前一亮,她发现比利是一个很难得的、极具天赋的芭蕾苗子。威尔金森夫人有着一张过于尖刻的利嘴,手里也总是拿着一支香烟,可当她看到比利有如此难得的舞蹈潜质时,也对他产生了强烈的兴趣。她甚至放弃其他的芭蕾女弟子,全身心地培养比利。
    然而比利学习芭蕾的事情始终瞒着他那独身的父亲(加里·刘易斯饰)和专横的兄长(杰米·德拉文饰)。矿上的罢工工潮,使他们在为吃饱肚子而努力地挣扎着。当他们终于发现比利把学习拳击的学费浪费在了毫无男子汉气概的芭蕾上时,一场家庭冲突就不可避免地爆发了。比利的祖母(琼·海伍德饰)也不赞成他去学习芭蕾。因此他只能从他的好朋友迈克尔(斯图尔特·韦尔斯饰)那儿找到一丝安慰,这也使得俩人的友谊进一步加深了。
    与此同时,威尔金森夫人也积极鼓动比利去报考伦敦的“皇家芭蕾学校",她认为在那里,比利可以得到更好的训练,也可以彻底摆脱家庭环境对他的巨大压力。而比利却陷入了对家庭的责任和实现自己理想的矛盾之中,但他最终还是选择了后者,因为对芭蕾的爱是他无法抗拒的,芭蕾是他的所在,也是他的命运所系。





本帖子中包含更多资源

您需要 登录 才可以下载或查看,没有帐号?立即注册  

x

举报

回复

10 个评论

您需要登录后才可以回帖 登录 | 立即注册  

本版积分规则

VIP会员招募,免广告,免回复,免收费下载
搜索

高清剧集推荐

更多

高清MV/综艺

更多

客服中心

400-800-8888 周一至周日 8:30-20:30 仅收市话费

关注我们

  • 手机客户端
  • 关注官方微信
关闭

站长推荐上一条 /1 下一条

关于我们
关于我们
友情链接
联系我们
帮助中心
网友中心
购买须知
支付方式
服务支持
资源下载
售后服务
定制流程
关注我们
官方微博
官方空间
官方微信
快速回复 返回顶部 返回列表