开启左侧

少年 Blood.of.Youth.2016.4K.2160p.QY.WEB-DL.x265.AAC-FLTTH.mp4 4.34G

[复制链接]
576 12
本帖最后由 福利发放鸡 于 2018-4-8 17:05 编辑

  1. General
  2. Complete name                            : Blood.of.Youth.2016.4K.2160p.QY.WEB-DL.x265.AAC-FLTTH.mp4
  3. Format                                   : MPEG-4
  4. Format profile                           : Base Media
  5. Codec ID                                 : isom (isom/iso2/mp41)
  6. File size                                : 4.34 GiB
  7. Duration                                 : 1 h 51 min
  8. Overall bit rate                         : 5 578 kb/s
  9. Writing application                      : Lavf58.9.100

  10. Video
  11. ID                                       : 1
  12. Format                                   : HEVC
  13. Format/Info                              : High Efficiency Video Coding
  14. Format profile                           : Main@L5@Main
  15. Codec ID                                 : hev1
  16. Codec ID/Info                            : High Efficiency Video Coding
  17. Duration                                 : 1 h 51 min
  18. Bit rate                                 : 5 381 kb/s
  19. Width                                    : 3 840 pixels
  20. Height                                   : 1 616 pixels
  21. Display aspect ratio                     : 2.40:1
  22. Frame rate mode                          : Constant
  23. Frame rate                               : 24.000 FPS
  24. Color space                              : YUV
  25. Chroma subsampling                       : 4:2:0
  26. Bit depth                                : 8 bits
  27. Bits/(Pixel*Frame)                       : 0.036
  28. Stream size                              : 4.19 GiB (96%)

  29. Audio
  30. ID                                       : 2
  31. Format                                   : AAC
  32. Format/Info                              : Advanced Audio Codec
  33. Format profile                           : LC
  34. Codec ID                                 : mp4a-40-2
  35. Duration                                 : 1 h 51 min
  36. Bit rate mode                            : Constant
  37. Bit rate                                 : 192 kb/s
  38. Channel(s)                               : 2 channels
  39. Channel positions                        : Front: L R
  40. Sampling rate                            : 44.1 kHz
  41. Frame rate                               : 43.066 FPS (1024 SPF)
  42. Compression mode                         : Lossy
  43. Stream size                              : 151 MiB (3%)
  44. Default                                  : Yes
  45. Alternate group                          : 1

复制代码

电影简介:
    《少年》是由腾讯影业、青春光线、58同城影业、春天融和、阳光影业、安瑞传媒、群英荟影业联合出品,杨树鹏执导,欧豪、张译、余男、郭晓东、刘天佐、郭姝彤、周一围、王烈、陈梓童等人主演的青春罪案电影。该片讲述两个少年精心设计了一个复仇计划,上演了一出“恶有恶报,少年开火”的故事。该片将于2016年12月16日在中国上映。


剧情简介:
    男孩苏昂(欧豪饰)与女孩林巧(郭姝彤饰)同在一所寄宿学校,幼时的苏昂因受尽了同学阿鬼的凌辱,林巧用自己脆弱的身子一直保护着苏昂,两人一路野蛮成长。另一边,一具被发现的白骨引起了小镇的轰动,刑侦队队长张建宇(张译饰)被迫接手此案,展开调查。然而在案件艰难推进中,林巧多年的秘密被一点点揭开,一切终将归为平静。刑满释放的小镇青年意外获得了自己暗恋的女生的手机,却因此发现了一个重大秘密,不久女生老师离奇死亡,警察着手调查此案,却发现真相扑朔迷离,随着案情不断深入,一段令人叹息的爱情故事逐渐浮出水面。两个少年入侵成年人的世界,并揭开了这个世界秘密。




本帖子中包含更多资源

您需要 登录 才可以下载或查看,没有帐号?立即注册  

x

举报

回复

12 个评论

您需要登录后才可以回帖 登录 | 立即注册  

本版积分规则

高清剧集推荐

更多

高清MV/综艺

更多

客服中心

400-800-8888 周一至周日 8:30-20:30 仅收市话费

关注我们

  • 手机客户端
  • 关注官方微信
关闭

站长推荐上一条 /1 下一条

关于我们
关于我们
友情链接
联系我们
帮助中心
网友中心
购买须知
支付方式
服务支持
资源下载
售后服务
定制流程
关注我们
官方微博
官方空间
官方微信
快速回复 返回顶部 返回列表