开启左侧

[BT下载]让我死/魍美[内封中字]Net.I.Die.2017.720p.BluRay.x264-WiKi 4.37G

[复制链接]
158 1
-->

◎译  名 让我死/魍美(台)
◎片  名 Net I Die
◎年  代 2017
◎产  地 泰国
◎类  别 惊悚/恐怖
◎语  言 泰语
◎上映日期 2017-08-17(泰国)
◎IMDb评分  4.0/10 from 46 users
◎IMDb链接  http://www.imdb.com/title/tt7154176/
◎高清迷整理 http://www.hdmee.com http://www.btbtt.me/
◎片  长 86分钟
◎导  演 Weeratham Preedee
◎主  演 Klai-Udom Sarantorn
      Kachai Pich
      Fahkuelon Ratsameekhae


◎简  介


  人氣網紅莫妮卡(琪洽安瑪達雅婫 飾)在當紅時,突然自殺死亡。1年後,莫妮卡的自殺影片在網路瘋傳,這段影片的標籤竟列出其他許多網紅的名字。其中一個名字是成功經營自創化妝品牌的瑪莉莎(莎蘭通.凱烏東 飾),她開始遭遇到許多怪異事件,而其他被標記的人則接連死亡。瑪莉莎成日被各種幻覺嚇得精神不濟,甚至摔傷住院,男友阿杰不忍看著她日漸憔悴,決定要找出這離奇事件背後的真相,他暗自著手調查,漸漸發現事件後的真相,瑪莉莎能夠躲過死神召喚活下來嗎?最超越你瘋狂想像的駭人故事即將上演!


Video
ID                                       : 1
Format                                   : AVC
Format/Info                              : Advanced Video Codec
Format profile                           : High@L4.1
Format settings                          : CABAC / 12 Ref Frames
Format settings, CABAC                   : Yes
Format settings, ReFrames                : 12 frames
Codec ID                                 : V_MPEG4/ISO/AVC
Duration                                 : 1 h 25 min
Bit rate                                 : 6 718 kb/s
Width                                    : 1 280 pixels
Height                                   : 538 pixels
Display aspect ratio                     : 2.40:1
Frame rate mode                          : Constant
Frame rate                               : 24.000 FPS
Color space                              : YUV
Chroma subsampling                       : 4:2:0
Bit depth                                : 8 bits
Scan type                                : Progressive
Bits/(Pixel*Frame)                       : 0.406
Stream size                              : 3.99 GiB (91%)
Writing library                          : x264 core 129 r2245 bc13772
Encoding settings                        : cabac=1 / ref=12 / deblock=1:-3:-3 / analyse=0x3:0x133 / me=umh / subme=11 / psy=1 / psy_rd=1.05:0.05 / mixed_ref=1 / me_range=32 / chroma_me=1 / trellis=2 / 8x8dct=1 / cqm=0 / deadzone=21,11 / fast_pskip=0 / chroma_qp_offset=-3 / threads=12 / lookahead_threads=2 / sliced_threads=0 / nr=0 / decimate=1 / interlaced=0 / bluray_compat=0 / constrained_intra=0 / bframes=8 / b_pyramid=2 / b_adapt=2 / b_bias=0 / direct=3 / weightb=1 / open_gop=0 / weightp=2 / keyint=250 / keyint_min=24 / scenecut=40 / intra_refresh=0 / rc_lookahead=60 / rc=2pass / mbtree=1 / bitrate=6718 / ratetol=1.0 / qcomp=0.60 / qpmin=0 / qpmax=69 / qpstep=4 / cplxblur=20.0 / qblur=0.5 / ip_ratio=1.40 / aq=1:0.65
Language                                 : English
Default                                  : Yes
Forced                                   : No

Audio
ID                                       : 2
Format                                   : AC-3
Format/Info                              : Audio Coding 3
Codec ID                                 : A_AC3
Duration                                 : 1 h 25 min
Bit rate mode                            : Constant
Bit rate                                 : 640 kb/s
Channel(s)                               : 6 channels
Channel positions                        : Front: L C R, Side: L R, LFE
Sampling rate                            : 48.0 kHz
Frame rate                               : 31.250 FPS (1536 SPF)
Bit depth                                : 16 bits
Compression mode                         : Lossy
Stream size                              : 389 MiB (9%)
Language                                 : Thai
Service kind                             : Complete Main
Default                                  : Yes
Forced                                   : No

Text #1
ID                                       : 3
Format                                   : UTF-8
Codec ID                                 : S_TEXT/UTF8
Codec ID/Info                            : UTF-8 Plain Text
Duration                                 : 1 h 21 min
Bit rate                                 : 23 b/s
Count of elements                        : 685
Stream size                              : 14.1 KiB (0%)
Title                                    : 繁体
Language                                 : Chinese
Default                                  : Yes
Forced                                   : No

Text #2
ID                                       : 4
Format                                   : UTF-8
Codec ID                                 : S_TEXT/UTF8
Codec ID/Info                            : UTF-8 Plain Text
Duration                                 : 1 h 21 min
Bit rate                                 : 23 b/s
Count of elements                        : 685
Stream size                              : 14.1 KiB (0%)
Title                                    : 简体
Language                                 : Chinese
Default                                  : No
Forced                                   : No





[table=98%][/table]

本帖子中包含更多资源

您需要 登录 才可以下载或查看,没有帐号?立即注册  

x

举报

回复

1 个评论

casarss001  720p  发表于 4 天前  | 显示全部楼层
谢谢分享泰国恐怖片电影资源
您需要登录后才可以回帖 登录 | 立即注册  

本版积分规则

高清剧集推荐

更多

高清MV/综艺

更多

客服中心

400-800-8888 周一至周日 8:30-20:30 仅收市话费

关注我们

  • 手机客户端
  • 关注官方微信
关闭

站长推荐上一条 /1 下一条

关于我们
关于我们
友情链接
联系我们
帮助中心
网友中心
购买须知
支付方式
服务支持
资源下载
售后服务
定制流程
关注我们
官方微博
官方空间
官方微信
快速回复 返回顶部 返回列表