开启左侧

[BT下载]10英尺×10英尺/10尺空间 10x10.2018.720p.AMZN.WEBRip.DDP5.1.x264-NTG 1.3G

[复制链接]
208 1
-->
◎译  名 10英尺×10英尺/10尺空间
◎片  名 10×10
◎年  代 2018
◎产  地 英国
◎类  别 惊悚
◎语  言 英语
◎上映日期 2018-04-13(美国)
◎IMDb评分  5.3/10 from 137 users
◎IMDb链接  http://www.imdb.com/title/tt6210996/
◎豆瓣评分 5.4/10 from 79 users
◎豆瓣链接 https://movie.douban.com/subject/26908284/
◎高清迷整理 http://www.hdmee.com http://www.btbtt.co
◎片  长 87分钟
◎导  演 苏西·尤因 Suzi Ewing
◎主  演 卢克·伊万斯 Luke Evans
      凯利·蕾莉 Kelly Reilly
      诺埃尔·克拉克 Noel Clarke
      杰森·马扎 Jason Maza
      Ruby Bustamante
      Olivia Chenery


◎简  介


  影片讲述一个叫刘易斯的男人绑架了他痴迷已久的女人凯西,将其囚禁在自己打造的10英尺×10英尺的囚室中,结果却出乎人们的预料。



Video
ID                                       : 1
Format                                   : AVC
Format/Info                              : Advanced Video Codec
Format profile                           : High@L3.1
Format settings                          : CABAC / 5 Ref Frames
Format settings, CABAC                   : Yes
Format settings, ReFrames                : 5 frames
Codec ID                                 : V_MPEG4/ISO/AVC
Duration                                 : 1 h 26 min
Bit rate mode                            : Variable
Bit rate                                 : 1 540 kb/s
Maximum bit rate                         : 4 500 kb/s
Width                                    : 1 280 pixels
Height                                   : 720 pixels
Display aspect ratio                     : 16:9
Frame rate mode                          : Constant
Frame rate                               : 23.976 (24000/1001) FPS
Color space                              : YUV
Chroma subsampling                       : 4:2:0
Bit depth                                : 8 bits
Scan type                                : Progressive
Bits/(Pixel*Frame)                       : 0.070
Stream size                              : 954 MiB (71%)
Default                                  : Yes
Forced                                   : No
Color range                              : Limited
Color primaries                          : BT.709
Transfer characteristics                 : BT.709
Matrix coefficients                      : BT.709

Audio
ID                                       : 2
Format                                   : E-AC-3
Format/Info                              : Enhanced Audio Coding 3
Codec ID                                 : A_EAC3
Duration                                 : 1 h 26 min
Bit rate mode                            : Constant
Bit rate                                 : 640 kb/s
Channel(s)                               : 6 channels
Channel positions                        : Front: L C R, Side: L R, LFE
Sampling rate                            : 48.0 kHz
Frame rate                               : 187.500 FPS (256 SPF)
Compression mode                         : Lossy
Stream size                              : 396 MiB (29%)
Language                                 : English
Service kind                             : Complete Main
Default                                  : Yes
Forced                                   : No

Text #1
ID                                       : 3
Format                                   : UTF-8
Codec ID                                 : S_TEXT/UTF8
Codec ID/Info                            : UTF-8 Plain Text
Duration                                 : 1 h 24 min
Bit rate                                 : 26 b/s
Count of elements                        : 547
Stream size                              : 16.7 KiB (0%)
Language                                 : English
Default                                  : No
Forced                                   : No

Text #2
ID                                       : 4
Format                                   : UTF-8
Codec ID                                 : S_TEXT/UTF8
Codec ID/Info                            : UTF-8 Plain Text
Duration                                 : 1 h 25 min
Bit rate                                 : 30 b/s
Count of elements                        : 639
Stream size                              : 18.9 KiB (0%)
Title                                    : SDH
Language                                 : English
Default                                  : No
Forced                                   : No





[table=98%][/table]

本帖子中包含更多资源

您需要 登录 才可以下载或查看,没有帐号?立即注册  

x

举报

回复

1 个评论

tmpuserx  Remux  发表于 2018-4-16 18:35:43  | 显示全部楼层
结果出乎意料?绑架了个男的?
您需要登录后才可以回帖 登录 | 立即注册  

本版积分规则

高清剧集推荐

更多

高清MV/综艺

更多

客服中心

400-800-8888 周一至周日 8:30-20:30 仅收市话费

关注我们

  • 手机客户端
  • 关注官方微信
关闭

站长推荐上一条 /1 下一条

关于我们
关于我们
友情链接
联系我们
帮助中心
网友中心
购买须知
支付方式
服务支持
资源下载
售后服务
定制流程
关注我们
官方微博
官方空间
官方微信
快速回复 返回顶部 返回列表