开启左侧

2018年中央电视台六一晚会 花开新时代.20180601.1080i.CCTV1.HDTV.H.264-FLTTH.ts 5.65G

[复制链接]
184 2

  1. General
  2. ID                                       : 1 (0x1)
  3. Complete name                            : 花开新时代.20180601.1080i.CCTV1.HDTV.H.264-FLTTH.ts
  4. Format                                   : MPEG-TS
  5. File size                                : 5.65 GiB
  6. Duration                                 : 1 h 40 min
  7. Overall bit rate mode                    : Variable
  8. Overall bit rate                         : 8 060 kb/s

  9. Video
  10. ID                                       : 256 (0x100)
  11. Menu ID                                  : 1 (0x1)
  12. Format                                   : AVC
  13. Format/Info                              : Advanced Video Codec
  14. Format profile                           : High@L4
  15. Format settings                          : CABAC / 2 Ref Frames
  16. Format settings, CABAC                   : Yes
  17. Format settings, RefFrames               : 2 frames
  18. Format settings, GOP                     : M=3, N=12
  19. Codec ID                                 : 27
  20. Duration                                 : 1 h 40 min
  21. Bit rate                                 : 7 532 kb/s
  22. Width                                    : 1 920 pixels
  23. Height                                   : 1 080 pixels
  24. Display aspect ratio                     : 16:9
  25. Frame rate                               : 25.000 FPS
  26. Color space                              : YUV
  27. Chroma subsampling                       : 4:2:0
  28. Bit depth                                : 8 bits
  29. Scan type                                : Interlaced
  30. Scan type, store method                  : Separated fields
  31. Scan order                               : Top Field First
  32. Bits/(Pixel*Frame)                       : 0.145
  33. Stream size                              : 5.28 GiB (93%)

  34. Audio
  35. ID                                       : 257 (0x101)
  36. Menu ID                                  : 1 (0x1)
  37. Format                                   : MPEG Audio
  38. Format version                           : Version 1
  39. Format profile                           : Layer 2
  40. Codec ID                                 : 3
  41. Duration                                 : 1 h 40 min
  42. Bit rate mode                            : Constant
  43. Bit rate                                 : 128 kb/s
  44. Channel(s)                               : 2 channels
  45. Sampling rate                            : 48.0 kHz
  46. Frame rate                               : 41.667 FPS (1152 SPF)
  47. Compression mode                         : Lossy
  48. Delay relative to video                  : -536 ms
  49. Stream size                              : 91.9 MiB (2%)

  50. Menu
  51. ID                                       : 4096 (0x1000)
  52. Menu ID                                  : 1 (0x1)
  53. Duration                                 : 1 h 40 min
  54. List                                     : 256 (0x100) (AVC) / 257 (0x101) (MPEG Audio)
  55. Service name                             : CCTV1
  56. Service provider                         : CCTV
  57. Service type                             : digital television

复制代码

节目简介:
    “六一”儿童节是每个人童年里最美的回忆,而这最美的回忆中又怎么少得了“六一”晚会?30多年来,中央电视台“六一”晚会不仅是孩子们热切期盼的“少儿春晚”,更是全中国家庭一年一度共同守望的文化盛宴。6月1日晚八点档,由中央广播电视总台精心打造的2018年“六一”晚会《花开新时代》如约而至。
    作为党的十九大胜利召开以来第一个“六一”晚会,今年晚会的主题是“花开新时代”。晚会总导演许蓓蓓表示,“晚会将以‘新时代’为主线,通过富有童真童趣的艺术表达,将中国梦、改革开放40周年、精准扶贫、文化自信与传承等国家热点话题融入其中,用一台悦目、悦耳、悦心的高水准晚会,抒发全国少年儿童的幸福感,表达孩子们的快乐心情和积极向上的精神风貌。”
    晚会总时长100分钟,包括歌曲、舞蹈、戏曲、杂技、武术、魔术、朗诵、音乐剧等多种艺术表现形式,节目类型丰富、构成多元,舞台呈现国际化,充满科技感。在充分利用央视一号演播厅现有灯光、舞美设施的基础上,晚会全新设计了舞台上空吊挂的放射状花蕊造型LED屏,通过多屏组合、升降运动构造出立体多变的舞台空间,配合增强现实等高科技手段,营造出更符合儿童特点的花朵盛放的舞台意境,呼应“花开新时代”的主题氛围。
    今年的“六一”晚会,也是首次以中央广播电视总台的呼号面向世界发声的第一台少年儿童综艺晚会。中央广播电视总台集结三台编、创、演精兵强将,为小朋友们送上一台精品化、高水准的节日大餐。来自中央电视台少儿频道的鞠萍、小鹿、月亮、黄炜、绿泡泡和金豆,将和来自央广的陈旻、国广的安娜组成全新主持阵容,共同主持。



本帖子中包含更多资源

您需要 登录 才可以下载或查看,没有帐号?立即注册  

x

举报

回复

2 个评论

您需要登录后才可以回帖 登录 | 立即注册  

本版积分规则

高清剧集推荐

更多

高清MV/综艺

更多

客服中心

400-800-8888 周一至周日 8:30-20:30 仅收市话费

关注我们

  • 手机客户端
  • 关注官方微信
关闭

站长推荐上一条 /1 下一条

关于我们
关于我们
友情链接
联系我们
帮助中心
网友中心
购买须知
支付方式
服务支持
资源下载
售后服务
定制流程
关注我们
官方微博
官方空间
官方微信
快速回复 返回顶部 返回列表