开启左侧

[BT下载]燃烧.Burning.2018.KR.WEB-DL.1920x1080p.x264.AAC-KOOK.[韩语中字] 5.64G

[复制链接]
482 7
-->燃烧.Burning.2018.KR.WEB-DL.1920x1080p.x264.AAC-KOOK.[韩语中字] 5.64GB
无广告,无水印
不定时做种,保证出种,请耐心等待.


※※※※※※※ 影片信息 ※※※※※※※
◎片   名 燃烧
◎译   名 燃烧烈爱(台) / Burning / Beoning
◎年   代 2018
◎国   家 韩国
◎类   别 剧情 / 悬疑
◎语   言 韩语
◎上映日 期 2018-05-16(戛纳电影节) / 2018-05-17(韩国)
◎字   幕 中英双字/简体字幕/繁体字幕/英文字幕
◎IMDB 评分  8.0/10 from 356 users
◎豆瓣 评分  8.1/10 from 10605 users
◎视频尺 寸  1920x1080p
◎片   长 2.28.06
◎导   演 李沧东
◎编   剧  李沧东 / 吴正美 / 村上春树
◎主   演 刘亚仁 / 史蒂文·元 / 全钟瑞 / 金秀京 / 崔承浩


◎简  介

  改编自村上春树短篇小说《烧仓房》,在一次送货的过程中,年轻的邮差钟秀(刘亚仁 饰)偶然间与童年好友惠美(全钟淑 饰)相遇。在前往非洲旅行之前,她请求钟秀照顾她的猫咪。旅行回来后,惠美向他介绍了本(史蒂文·元 饰),一个她在旅途上认识的神秘男人。一天,本向钟秀展示了一种奇怪却又让他无法抗拒的爱好……

      演员史蒂文·元在美国接到这个角色时并对村上春树的原著小说进行了解,在读完小说之后,就飞到韩国,见到了导演李沧东,不过他当时都准备好了要拒绝这个角色,因为怕演砸了,给李沧东的作品中留下污点。
     史蒂文·元出生在韩国,生长在美国中西部,电影在4个月的拍摄中,史蒂文·元拼命地学习韩语。认为能在韩国拍摄,唤醒了他心中不会第一眼被当成少数族裔人群的感受 。
       导演李沧东原本是把影片想交给年轻的导演拍摄,但是实际操作的时候出现了很多现实的困难,NHK和村上春树的版权长期谈不下来,审核过程推迟了很久。另一方面是李沧东读完威廉·福克纳同一个题材的小说时,觉得自己拍会更好
第71届戛纳电影节  (2018)
主竞赛单元 金棕榈奖(提名) 李沧东
费比西奖 竞赛单元奖 李沧东
※※※※※※※ 参数信息 ※※※※※※※

General
Unique ID                      : 252273500617393342963875925752466313187 (0xBDCA1BE0F70807DF9AE65881254B0FE3)
Format                         : Matroska
Format version                 : Version 4 / Version 2
File size                      : 5.64 GiB
Duration                       : 2 h 28 min
Overall bit rate               : 5 454 kb/s
Movie name                     : KOOK
Encoded date                   : UTC 2018-06-10 15:42:30
Writing application            : mkvmerge v9.4.2 ('So High') 64bit
Writing library                : libebml v1.3.4 + libmatroska v1.4.5
Attachments                    : 正式海报 韩国.jpg / fzlbfw.ttf / fzlbjw.ttf
Video
ID                             : 1
Format                         : AVC
Format/Info                    : Advanced Video Codec
Format profile                 : High@L4
Format settings, CABAC         : Yes
Format settings, ReFrames      : 4 frames
Format settings, GOP           : M=4, N=29
Codec ID                       : V_MPEG4/ISO/AVC
Duration                       : 2 h 28 min
Bit rate                       : 5 120 kb/s
Width                          : 1 920 pixels
Height                         : 1 080 pixels
Display aspect ratio           : 16:9
Frame rate mode                : Constant
Frame rate                     : 29.970 (30000/1001) FPS
Color space                    : YUV
Chroma subsampling             : 4:2:0
Bit depth                      : 8 bits
Scan type                      : Progressive
Bits/(Pixel*Frame)             : 0.082
Stream size                    : 5.30 GiB (94%)
Writing library                : x264 core 148 r2768 d32d7bf
Encoding settings              : cabac=1 / ref=3 / deblock=1:0:0 / analyse=0x3:0x113 / me=hex / subme=8 / psy=1 / psy_rd=1.00:0.00 / mixed_ref=1 / me_range=16 / chroma_me=1 / trellis=2 / 8x8dct=1 / cqm=0 / deadzone=21,11 / fast_pskip=1 / chroma_qp_offset=-2 / threads=24 / lookahead_threads=4 / sliced_threads=0 / nr=0 / decimate=1 / interlaced=0 / bluray_compat=0 / stitchable=1 / constrained_intra=0 / bframes=3 / b_pyramid=2 / b_adapt=1 / b_bias=0 / direct=3 / weightb=1 / open_gop=0 / weightp=2 / keyint=29 / keyint_min=15 / scenecut=40 / intra_refresh=0 / rc_lookahead=29 / rc=2pass / mbtree=1 / bitrate=5120 / ratetol=1.0 / qcomp=0.60 / qpmin=0 / qpmax=69 / qpstep=4 / cplxblur=20.0 / qblur=0.5 / ip_ratio=1.40 / aq=1:1.00
Default                        : Yes
Forced                         : No
Audio
ID                             : 2
Format                         : AAC
Format/Info                    : Advanced Audio Codec
Format profile                 : LC
Codec ID                       : A_AAC
Duration                       : 2 h 28 min
Bit rate                       : 320 kb/s
Channel(s)                     : 2 channels
Channel positions              : Front: L R
Sampling rate                  : 48.0 kHz
Frame rate                     : 46.875 FPS (1024 spf)
Compression mode               : Lossy
Delay relative to video        : 34 ms
Stream size                    : 339 MiB (6%)
Default                        : Yes
Forced                         : No
Text #1
ID                             : 3
Format                         : ASS
Codec ID                       : S_TEXT/ASS
Codec ID/Info                  : Advanced Sub Station Alpha
Duration                       : 2 h 25 min
Bit rate                       : 69 b/s
Count of elements              : 1238
Compression mode               : Lossless
Stream size                    : 73.7 KiB (0%)
Title                          : 简体字幕
Language                       : Chinese
Default                        : Yes
Forced                         : No
Text #2
ID                             : 4
Format                         : ASS
Codec ID                       : S_TEXT/ASS
Codec ID/Info                  : Advanced Sub Station Alpha
Duration                       : 2 h 25 min
Bit rate                       : 69 b/s
Count of elements              : 1238
Compression mode               : Lossless
Stream size                    : 73.7 KiB (0%)
Title                          : 繁体字幕
Language                       : Chinese
Default                        : No
Forced                         : No



[table=98%][/table]

本帖子中包含更多资源

您需要 登录 才可以下载或查看,没有帐号?立即注册  

x

举报

回复

7 个评论

您需要登录后才可以回帖 登录 | 立即注册  

本版积分规则

高清剧集推荐

更多

高清MV/综艺

更多

客服中心

400-800-8888 周一至周日 8:30-20:30 仅收市话费

关注我们

  • 手机客户端
  • 关注官方微信
关闭

站长推荐上一条 /1 下一条

关于我们
关于我们
友情链接
联系我们
帮助中心
网友中心
购买须知
支付方式
服务支持
资源下载
售后服务
定制流程
关注我们
官方微博
官方空间
官方微信
快速回复 返回顶部 返回列表