开启左侧

中央电视台综合频道端午特别节目 相聚中国节·端午正风华.20180618.1080i.CCTV1.HDTV.H.264.DD5.1-FLTTH.ts 12.6G

[复制链接]
76 1

  1. General
  2. ID                                       : 1 (0x1)
  3. Complete name                            : 相聚中国节·端午正风华.20180618.1080i.CCTV1.HDTV.H.264.DD5.1-FLTTH.ts
  4. Format                                   : MPEG-TS
  5. File size                                : 12.6 GiB
  6. Duration                                 : 3 h 33 min
  7. Overall bit rate mode                    : Variable
  8. Overall bit rate                         : 8 414 kb/s

  9. Video
  10. ID                                       : 256 (0x100)
  11. Menu ID                                  : 1 (0x1)
  12. Format                                   : AVC
  13. Format/Info                              : Advanced Video Codec
  14. Format profile                           : High@L4
  15. Format settings                          : CABAC / 2 Ref Frames
  16. Format settings, CABAC                   : Yes
  17. Format settings, RefFrames               : 2 frames
  18. Format settings, GOP                     : M=3, N=12
  19. Codec ID                                 : 27
  20. Duration                                 : 3 h 33 min
  21. Bit rate                                 : 7 546 kb/s
  22. Width                                    : 1 920 pixels
  23. Height                                   : 1 080 pixels
  24. Display aspect ratio                     : 16:9
  25. Frame rate                               : 25.000 FPS
  26. Color space                              : YUV
  27. Chroma subsampling                       : 4:2:0
  28. Bit depth                                : 8 bits
  29. Scan type                                : Interlaced
  30. Scan type, store method                  : Separated fields
  31. Scan order                               : Top Field First
  32. Bits/(Pixel*Frame)                       : 0.146
  33. Stream size                              : 11.3 GiB (90%)

  34. Audio
  35. ID                                       : 257 (0x101)
  36. Menu ID                                  : 1 (0x1)
  37. Format                                   : AC-3
  38. Format/Info                              : Audio Coding 3
  39. Codec ID                                 : 129
  40. Duration                                 : 3 h 33 min
  41. Bit rate mode                            : Constant
  42. Bit rate                                 : 448 kb/s
  43. Channel(s)                               : 6 channels
  44. Channel positions                        : Front: L C R, Side: L R, LFE
  45. Sampling rate                            : 48.0 kHz
  46. Frame rate                               : 31.250 FPS (1536 SPF)
  47. Bit depth                                : 16 bits
  48. Compression mode                         : Lossy
  49. Delay relative to video                  : -584 ms
  50. Stream size                              : 685 MiB (5%)
  51. Language                                 : English
  52. Service kind                             : Complete Main

  53. Menu
  54. ID                                       : 4096 (0x1000)
  55. Menu ID                                  : 1 (0x1)
  56. Duration                                 : 3 h 33 min
  57. List                                     : 256 (0x100) (AVC) / 257 (0x101) (AC-3, English)
  58. Language                                 :  / English
  59. Service name                             : CCTV1
  60. Service provider                         : BGCTV
  61. Service type                             : user defined

复制代码

节目介绍:
    大国工匠赛龙舟,汨罗江上竞风流。5月29日~31日,中央电视台综合频道端午特别节目“相聚中国节·端午正风华”在“龙舟之乡”湖南汨罗江畔进行外景摄制,中国铁建代表队与由航天科工、航天科技组成的中国航天代表队作为两支央企参赛队伍,和当地龙舟代表队参与了节目录制。
    中国铁建代表队由中铁十一局、中铁十二局、中国铁建大桥局、中铁十四局、中铁十七局、中铁十八局、中国铁建港航局、铁建重工、中铁城建集团等单位选派的12名技术能手组成,他们有的创下了高铁架梁的世界最快速度,有的研发了我国首台大型岩石隧道掘进机……是中国铁建在施工、制造领域的优秀代表。
    6月初,中国铁建代表队还将前往北京演播室进行录制,将专业技术、家国情怀故事与外景拍摄龙舟比赛趣味性相融合,让观众在品味龙舟文化传承的同时,感受以爱国主义为内核的端午文化在当代年轻人中闪耀的光芒。节目在6月18日端午节当天中午的央视综合频道播出。



下载地址:



本帖子中包含更多资源

您需要 登录 才可以下载或查看,没有帐号?立即注册  

x

举报

回复

1 个评论

您需要登录后才可以回帖 登录 | 立即注册  

本版积分规则

VIP会员招募,免广告,免回复,免收费下载
搜索

高清剧集推荐

更多

高清MV/综艺

更多

客服中心

400-800-8888 周一至周日 8:30-20:30 仅收市话费

关注我们

  • 手机客户端
  • 关注官方微信
关闭

站长推荐上一条 /1 下一条

关于我们
关于我们
友情链接
联系我们
帮助中心
网友中心
购买须知
支付方式
服务支持
资源下载
售后服务
定制流程
关注我们
官方微博
官方空间
官方微信
快速回复 返回顶部 返回列表