开启左侧

上海合作组织第五届军乐节开幕式 和平号角-2018.1080i.CCTV3.HDTV.H.264.DD5.1-FLTTH.ts 4.64G

[复制链接]
161 0

  1. General
  2. ID                                       : 1 (0x1)
  3. Complete name                            : 和平号角-2018.1080i.CCTV3.HDTV.H.264.DD5.1-FLTTH.ts
  4. Format                                   : MPEG-TS
  5. File size                                : 4.64 GiB
  6. Duration                                 : 1 h 14 min
  7. Overall bit rate mode                    : Variable
  8. Overall bit rate                         : 8 953 kb/s

  9. Video
  10. ID                                       : 256 (0x100)
  11. Menu ID                                  : 1 (0x1)
  12. Format                                   : AVC
  13. Format/Info                              : Advanced Video Codec
  14. Format profile                           : High@L4
  15. Format settings                          : CABAC / 3 Ref Frames
  16. Format settings, CABAC                   : Yes
  17. Format settings, RefFrames               : 3 frames
  18. Format settings, GOP                     : M=3, N=15
  19. Codec ID                                 : 27
  20. Duration                                 : 1 h 14 min
  21. Bit rate mode                            : Constant
  22. Bit rate                                 : 7 800 kb/s
  23. Width                                    : 1 920 pixels
  24. Height                                   : 1 080 pixels
  25. Display aspect ratio                     : 16:9
  26. Frame rate                               : 25.000 FPS
  27. Color space                              : YUV
  28. Chroma subsampling                       : 4:2:0
  29. Bit depth                                : 8 bits
  30. Scan type                                : Interlaced
  31. Scan type, store method                  : Separated fields
  32. Scan order                               : Top Field First
  33. Bits/(Pixel*Frame)                       : 0.150
  34. Stream size                              : 4.18 GiB (90%)
  35. Color range                              : Limited
  36. Color primaries                          : BT.709
  37. Transfer characteristics                 : BT.709
  38. Matrix coefficients                      : BT.709

  39. Audio
  40. ID                                       : 257 (0x101)
  41. Menu ID                                  : 1 (0x1)
  42. Format                                   : AC-3
  43. Format/Info                              : Audio Coding 3
  44. Codec ID                                 : 129
  45. Duration                                 : 1 h 14 min
  46. Bit rate mode                            : Constant
  47. Bit rate                                 : 448 kb/s
  48. Channel(s)                               : 6 channels
  49. Channel positions                        : Front: L C R, Side: L R, LFE
  50. Sampling rate                            : 48.0 kHz
  51. Frame rate                               : 31.250 FPS (1536 SPF)
  52. Bit depth                                : 16 bits
  53. Compression mode                         : Lossy
  54. Delay relative to video                  : -331 ms
  55. Stream size                              : 238 MiB (5%)
  56. Language                                 : English
  57. Service kind                             : Complete Main

  58. Menu
  59. ID                                       : 4096 (0x1000)
  60. Menu ID                                  : 1 (0x1)
  61. Duration                                 : 1 h 14 min
  62. List                                     : 256 (0x100) (AVC) / 257 (0x101) (AC-3, English)
  63. Language                                 :  / English
  64. Service name                             : CCTV3
  65. Service provider                         : BGCTV
  66. Service type                             : user defined

复制代码

节目简介:
    4月24日晚,“和平号角-2018”上海合作组织第五届军乐节开幕式暨军乐演出在北京居庸关长城北关广场举行。国务委员兼国防部长魏凤和与各国国防部长共同出席了开幕式。
    中国人民解放军军乐团和来自吉尔吉斯斯坦、巴基斯坦、俄罗斯、塔吉克斯坦、乌兹别克斯坦、印度、白俄罗斯等国军队的共8支军乐团参加本届军乐节。开幕式后举行了军乐节首场正式演出,各国军乐团为各界观众带来了一场视听盛宴与心灵的震撼。中国人民解放军军乐团演奏的组曲《奋进新时代》,由《向着胜利》、《激情燃烧的岁月》、《军民并肩》三首乐曲创新编排而成。乌兹别克斯坦、印度和白俄罗斯均为首次派出军乐团参加演出,为盛会带来崭新生机和活力。
    “和平号角”军乐节于2014年由中方倡议发起,自首届军乐节在北京成功举办后,得到各成员国热烈响应。举办以来,各国军乐团深入交流艺术、畅叙友情,用美妙的音乐搭建起一座和平与友谊的桥梁。

下载地址:



本帖子中包含更多资源

您需要 登录 才可以下载或查看,没有帐号?立即注册  

x

举报

回复
您需要登录后才可以回帖 登录 | 立即注册  

本版积分规则

高清剧集推荐

更多

高清MV/综艺

更多

客服中心

400-800-8888 周一至周日 8:30-20:30 仅收市话费

关注我们

  • 手机客户端
  • 关注官方微信
关闭

站长推荐上一条 /1 下一条

关于我们
关于我们
友情链接
联系我们
帮助中心
网友中心
购买须知
支付方式
服务支持
资源下载
售后服务
定制流程
关注我们
官方微博
官方空间
官方微信
快速回复 返回顶部 返回列表