开启左侧

[百度] 一夜惊喜 One.Night.Surprise.2013.1080p.HDTVRip.x264.AAC-FLTTH.mp4 5.04G

[复制链接]
108 2

  1. General
  2. Complete name                            : One.Night.Surprise.2013.1080p.HDTVRip.x264.AAC-FLTTH.mp4
  3. Format                                   : MPEG-4
  4. Format profile                           : Base Media
  5. Codec ID                                 : isom (isom/iso2/avc1/mp41)
  6. File size                                : 5.04 GiB
  7. Duration                                 : 1 h 42 min
  8. Overall bit rate                         : 7 014 kb/s
  9. Writing application                      : Lavf57.75.100

  10. Video
  11. ID                                       : 1
  12. Format                                   : AVC
  13. Format/Info                              : Advanced Video Codec
  14. Format profile                           : Main@L4.1
  15. Format settings                          : CABAC / 4 Ref Frames
  16. Format settings, CABAC                   : Yes
  17. Format settings, RefFrames               : 4 frames
  18. Codec ID                                 : avc1
  19. Codec ID/Info                            : Advanced Video Coding
  20. Duration                                 : 1 h 42 min
  21. Bit rate                                 : 6 881 kb/s
  22. Width                                    : 1 920 pixels
  23. Height                                   : 1 080 pixels
  24. Display aspect ratio                     : 16:9
  25. Frame rate mode                          : Constant
  26. Frame rate                               : 25.000 FPS
  27. Standard                                 : PAL
  28. Color space                              : YUV
  29. Chroma subsampling                       : 4:2:0
  30. Bit depth                                : 8 bits
  31. Scan type                                : Progressive
  32. Bits/(Pixel*Frame)                       : 0.133
  33. Stream size                              : 4.95 GiB (98%)
  34. Language                                 : English
  35. Color range                              : Limited
  36. Color primaries                          : BT.709
  37. Transfer characteristics                 : BT.709
  38. Matrix coefficients                      : BT.709

  39. Audio
  40. ID                                       : 2
  41. Format                                   : AAC
  42. Format/Info                              : Advanced Audio Codec
  43. Format profile                           : LC
  44. Codec ID                                 : mp4a-40-2
  45. Duration                                 : 1 h 42 min
  46. Duration_LastFrame                       : -5 ms
  47. Bit rate mode                            : Constant
  48. Bit rate                                 : 125 kb/s
  49. Channel(s)                               : 2 channels
  50. Channel positions                        : Front: L R
  51. Sampling rate                            : 48.0 kHz
  52. Frame rate                               : 46.875 FPS (1024 SPF)
  53. Compression mode                         : Lossy
  54. Stream size                              : 92.3 MiB (2%)
  55. Language                                 : English
  56. Default                                  : Yes
  57. Alternate group                          : 1

复制代码

电影简介:
    《一夜惊喜》是由华夏视听环球传媒(北京)股份有限公司、寰亚电影、萌影画联合出品的中国首部性感喜剧片,由金依萌编剧并执导,范冰冰、李治廷、吴佩慈、蒋劲夫、丹尼尔·亨利等主演。影片讲述了广告公司的女高管米雪在一场生日派对之后,纠结于多个激萌帅哥之间的性感喜剧故事。影片于2013年8月9日在中国大陆上映。

剧情简介:
    从小品学兼优、美丽干练的米雪(范冰冰饰)对人生有着极好的规划,如今她身为某大型广告策划公司主管,事业顺风顺水,春风得意。某日,单身已久的她发现自己竟然有孕在身,而一个月前出现在她生日聚会上的每个男子都有嫌疑。在自诩为恋爱高手的闺蜜林薇薇(吴佩慈饰)的毒舌分析下,米雪决定为肚中的孩子找到生父,她锁定了四个当晚和酒醉的自己最有可能亲密接触的男人,开始逐一进行试探和调查。
他们分别是比米雪年轻六岁并一直对她心存好感的下属张童宇(李治廷饰)、擅长花样滑冰的青春萌男林智博(蒋劲夫饰)、全公司女人眼中的钻石男周毕安(丹尼尔·亨利饰)、以及对她穷追不舍的暴发户陆大虎(黎明饰)。

下载地址:
https://pan.baidu.com/s/1FVpW8jSnWQBdgxOFulY4xA



本帖子中包含更多资源

您需要 登录 才可以下载或查看,没有帐号?立即注册  

x

举报

回复

2 个评论

您需要登录后才可以回帖 登录 | 立即注册  

本版积分规则

VIP会员招募,免广告,免回复,免收费下载
搜索

高清剧集推荐

更多

高清MV/综艺

更多

客服中心

400-800-8888 周一至周日 8:30-20:30 仅收市话费

关注我们

  • 手机客户端
  • 关注官方微信
关闭

站长推荐上一条 /1 下一条

关于我们
关于我们
友情链接
联系我们
帮助中心
网友中心
购买须知
支付方式
服务支持
资源下载
售后服务
定制流程
关注我们
官方微博
官方空间
官方微信
快速回复 返回顶部 返回列表