开启左侧

拆弹专家(普通话) Shock.Wave.2017.4K.2160p.QY.WEB-DL.x265.AAC-FLTTH.mp4 2.66G

[复制链接]
222 5

  1. General
  2. Complete name                            : Shock.Wave.2017.4K.2160p.QY.WEB-DL.x265.AAC-FLTTH.mp4
  3. Format                                   : MPEG-4
  4. Format profile                           : Base Media
  5. Codec ID                                 : isom (isom/iso2/mp41)
  6. File size                                : 2.66 GiB
  7. Duration                                 : 1 h 59 min
  8. Overall bit rate mode                    : Variable
  9. Overall bit rate                         : 3 183 kb/s
  10. Writing application                      : Lavf58.13.100

  11. Video
  12. ID                                       : 1
  13. Format                                   : HEVC
  14. Format/Info                              : High Efficiency Video Coding
  15. Format profile                           : Main@L5@Main
  16. Codec ID                                 : hev1
  17. Codec ID/Info                            : High Efficiency Video Coding
  18. Duration                                 : 1 h 59 min
  19. Bit rate                                 : 3 116 kb/s
  20. Width                                    : 3 840 pixels
  21. Height                                   : 1 616 pixels
  22. Display aspect ratio                     : 2.40:1
  23. Frame rate mode                          : Constant
  24. Frame rate                               : 24.000 FPS
  25. Color space                              : YUV
  26. Chroma subsampling                       : 4:2:0
  27. Bit depth                                : 8 bits
  28. Bits/(Pixel*Frame)                       : 0.021
  29. Stream size                              : 2.61 GiB (98%)

  30. Audio
  31. ID                                       : 2
  32. Format                                   : AAC
  33. Format/Info                              : Advanced Audio Codec
  34. Format profile                           : HE-AAC / LC
  35. Format settings                          : Implicit
  36. Codec ID                                 : mp4a-40-2
  37. Duration                                 : 1 h 59 min
  38. Bit rate mode                            : Variable
  39. Bit rate                                 : 63.0 kb/s
  40. Channel(s)                               : 2 channels
  41. Channel positions                        : Front: L R
  42. Sampling rate                            : 44.1 kHz / 22.05 kHz
  43. Frame rate                               : 21.533 FPS (1024 SPF)
  44. Compression mode                         : Lossy
  45. Stream size                              : 53.7 MiB (2%)
  46. Default                                  : Yes
  47. Alternate group                          : 1

复制代码

电影简介:
    《拆弹专家》是由博纳影业集团有限公司、寰宇娱乐有限公司、梦造者娱乐有限公司出品的警匪动作片,由邱礼涛执导,刘德华、姜武、宋佳领衔主演。该片于2017年4月28日在中国内地上映。

剧情简介:
    章在山(刘德华饰)是香港警队爆炸品处理科的一名高级督察。七年前,他潜伏到头号通缉犯洪继鹏(姜武饰)的犯罪团伙中,在一次打劫金库的行动中,章在山表露了其拆弹组卧底的身份,与警方里应外合,成功阻止炸弹引爆,并将洪继鹏及其弟的犯罪组织一网打尽,可惜在千钧一发之间,洪继鹏逃脱并扬言誓要报仇。复职后的章在山很快被晋升为警队的拆弹专家。七年后,香港接二连三遭遇炸弹恐怖袭击,警方更收到线报大批爆炸品已偷运入港,一切迹象显示香港将有大案发生。就在香港人心惶惶之际,城中最繁忙的红磡海底隧道被悍匪围堵拦截,数百名人质被胁持,终于现身的洪继鹏威胁警方炸毁隧道。章在山唯有将洪继鹏绳之于法,才能拆解这场反恐风暴背后的惊天阴谋。

下载地址:
https://pan.baidu.com/s/1sgxCJTa8rSIC0qHAsarDaA


本帖子中包含更多资源

您需要 登录 才可以下载或查看,没有帐号?立即注册  

x

举报

回复

5 个评论

您需要登录后才可以回帖 登录 | 立即注册  

本版积分规则

高清剧集推荐

更多

高清MV/综艺

更多

客服中心

400-800-8888 周一至周日 8:30-20:30 仅收市话费

关注我们

  • 手机客户端
  • 关注官方微信
关闭

站长推荐上一条 /1 下一条

关于我们
关于我们
友情链接
联系我们
帮助中心
网友中心
购买须知
支付方式
服务支持
资源下载
售后服务
定制流程
关注我们
官方微博
官方空间
官方微信
快速回复 返回顶部 返回列表