开启左侧

陈翔六点半之铁头无敌.2018.4K.2160p.QY.WEB-DL.x265.AAC-FLTTH.mp4 3.41G

[复制链接]
157 7

  1. General
  2. Complete name                            : 陈翔六点半之铁头无敌.2018.4K.2160p.QY.WEB-DL.x265.AAC-FLTTH.mp4
  3. Format                                   : MPEG-4
  4. Format profile                           : Base Media
  5. Codec ID                                 : isom (isom/iso2/mp41)
  6. File size                                : 3.41 GiB
  7. Duration                                 : 1 h 36 min
  8. Overall bit rate mode                    : Variable
  9. Overall bit rate                         : 5 064 kb/s
  10. Writing application                      : Lavf58.13.100

  11. Video
  12. ID                                       : 1
  13. Format                                   : HEVC
  14. Format/Info                              : High Efficiency Video Coding
  15. Format profile                           : Main@L5@Main
  16. Codec ID                                 : hev1
  17. Codec ID/Info                            : High Efficiency Video Coding
  18. Duration                                 : 1 h 36 min
  19. Bit rate                                 : 4 996 kb/s
  20. Width                                    : 3 840 pixels
  21. Height                                   : 1 600 pixels
  22. Display aspect ratio                     : 2.40:1
  23. Frame rate mode                          : Constant
  24. Frame rate                               : 25.000 FPS
  25. Color space                              : YUV
  26. Chroma subsampling                       : 4:2:0
  27. Bit depth                                : 8 bits
  28. Bits/(Pixel*Frame)                       : 0.033
  29. Stream size                              : 3.37 GiB (99%)

  30. Audio
  31. ID                                       : 2
  32. Format                                   : AAC
  33. Format/Info                              : Advanced Audio Codec
  34. Format profile                           : HE-AAC / LC
  35. Format settings                          : Implicit
  36. Codec ID                                 : mp4a-40-2
  37. Duration                                 : 1 h 36 min
  38. Bit rate mode                            : Variable
  39. Bit rate                                 : 62.9 kb/s
  40. Maximum bit rate                         : 63.9 kb/s
  41. Channel(s)                               : 2 channels
  42. Channel positions                        : Front: L R
  43. Sampling rate                            : 44.1 kHz / 22.05 kHz
  44. Frame rate                               : 21.533 FPS (1024 SPF)
  45. Compression mode                         : Lossy
  46. Stream size                              : 43.4 MiB (1%)
  47. Default                                  : Yes
  48. Alternate group                          : 1

复制代码

剧情简介:
    七旬大爷老废年轻时在香港练功夫练成铁头无敌,如今老了铁头功却毫无用处,生活穷困窘迫。老废面对惨淡人生,发出了要再奋斗一次的誓言,在所有人都嘲笑他的时候,一个废柴老头、一门没用的武功在新的环境下,却碰撞出了前所未有的火花。他也大器晚成、飞黄腾达。

下载地址:
https://pan.baidu.com/s/1c4vts8kbM64N_ZTmCrxplw


本帖子中包含更多资源

您需要 登录 才可以下载或查看,没有帐号?立即注册  

x

举报

回复

7 个评论

您需要登录后才可以回帖 登录 | 立即注册  

本版积分规则

VIP会员招募,免广告,免回复,免收费下载
搜索

高清剧集推荐

更多

高清MV/综艺

更多

客服中心

400-800-8888 周一至周日 8:30-20:30 仅收市话费

关注我们

  • 手机客户端
  • 关注官方微信
关闭

站长推荐上一条 /1 下一条

关于我们
关于我们
友情链接
联系我们
帮助中心
网友中心
购买须知
支付方式
服务支持
资源下载
售后服务
定制流程
关注我们
官方微博
官方空间
官方微信
快速回复 返回顶部 返回列表