开启左侧

非遗公开课(2018) CCTV1.Intangible.Cultural.Heritage.20180608.1080i.HDTV.DD5.1.H264-FLTTH.ts 7.91G

[复制链接]
115 6

  1. General
  2. ID                                       : 1 (0x1)
  3. Complete name                            : CCTV1.Intangible.Cultural.Heritage.20180608.1080i.HDTV.DD5.1.H264-FLTTH.ts
  4. Format                                   : MPEG-TS
  5. File size                                : 7.91 GiB
  6. Duration                                 : 1 h 32 min
  7. Overall bit rate mode                    : Variable
  8. Overall bit rate                         : 12.2 Mb/s

  9. Video
  10. ID                                       : 256 (0x100)
  11. Menu ID                                  : 1 (0x1)
  12. Format                                   : AVC
  13. Format/Info                              : Advanced Video Codec
  14. Format profile                           : High@L4.1
  15. Format settings                          : CABAC / 4 Ref Frames
  16. Format settings, CABAC                   : Yes
  17. Format settings, RefFrames               : 4 frames
  18. Codec ID                                 : 27
  19. Duration                                 : 1 h 32 min
  20. Bit rate mode                            : Variable
  21. Bit rate                                 : 11.2 Mb/s
  22. Maximum bit rate                         : 11.5 Mb/s
  23. Width                                    : 1 920 pixels
  24. Height                                   : 1 080 pixels
  25. Display aspect ratio                     : 16:9
  26. Frame rate                               : 25.000 FPS
  27. Color space                              : YUV
  28. Chroma subsampling                       : 4:2:0
  29. Bit depth                                : 8 bits
  30. Scan type                                : MBAFF
  31. Scan type, store method                  : Interleaved fields
  32. Scan order                               : Top Field First
  33. Bits/(Pixel*Frame)                       : 0.216
  34. Stream size                              : 7.23 GiB (91%)

  35. Audio
  36. ID                                       : 257 (0x101)
  37. Menu ID                                  : 1 (0x1)
  38. Format                                   : AC-3
  39. Format/Info                              : Audio Coding 3
  40. Codec ID                                 : 129
  41. Duration                                 : 1 h 32 min
  42. Bit rate mode                            : Constant
  43. Bit rate                                 : 448 kb/s
  44. Channel(s)                               : 6 channels
  45. Channel positions                        : Front: L C R, Side: L R, LFE
  46. Sampling rate                            : 48.0 kHz
  47. Frame rate                               : 31.250 FPS (1536 SPF)
  48. Bit depth                                : 16 bits
  49. Compression mode                         : Lossy
  50. Delay relative to video                  : -836 ms
  51. Stream size                              : 296 MiB (4%)
  52. Service kind                             : Complete Main

  53. Menu
  54. ID                                       : 4096 (0x1000)
  55. Menu ID                                  : 1 (0x1)
  56. Duration                                 : 1 h 32 min
  57. List                                     : 256 (0x100) (AVC) / 257 (0x101) (AC-3)
  58. Service name                             : CCTV1
  59. Service provider                         : CCTV1
  60. Service type                             : digital television

复制代码

节目介绍:
    为读懂非遗之美、传承文化之根,2018年文化和自然遗产日,中央电视台于2018年6月8日20:08在央视综合频道播出特别节目《非遗公开课》。节目由董卿担当主持,以专家授课、传承人讲解展示等多种形式,带领观众走进寓教于乐的“文化课堂”。
    为充分展现非遗对于人民追求美好生活的现实意义,节目在结构设置上分成了“非遗点亮智慧”、“非遗引领时尚”、“非遗传递情感”、“非遗凝聚力量”四个板块,并邀请了四位“大有来头”的主讲人和多位非遗传承人“现场授课”。他们分别是中国社会科学院荣誉学部委员刘魁立、中国丝绸博物馆馆长赵丰、中国艺术研究院音乐研究所研究员田青和中国社会科学院研究员巴莫曲布嫫。几位老师用深入浅出,理论与实践相结合的精彩讲解,完成了四段有主题、有气势、有情怀的主题课堂。在主讲人授课环节,除了普及非物质文化遗产的相关知识和发展现状,中国丝绸博物馆馆长赵丰分享了自己对于“非遗与时尚”的独到见解,他认为“非遗是传统的,时尚是鲜活的。我们要用时尚来传承非遗,把非遗融入时尚,甚至在某些方面,可以引领时尚”,这段演讲也让观众对传承和创新发展中华优秀传统文化有了更深刻的理解。
    为充分领略非遗之美,此次《非遗公开课》在保留传统展示方式的基础上,设计了许多时尚新颖的表演方式。展示内容涵盖了滚灯、口技、木活字印刷技术、苏绣、潮绣、云锦、侗族大歌、古琴、京剧、少林功夫、舞龙舞狮等10余项国家级非遗代表性项目,意在为观众带来一场精彩绝伦的文化盛宴。其中不仅有融合书法绘画和古风舞蹈的《把酒问青天》首次登上荧屏,湛江人龙舞和遂溪龙湾醒狮传承人以气势磅礴的“人造龙”上演《龙舞天下》惊艳全场;还有身穿苏绣、潮绣、云锦的模特伴随着霍尊的《卷珠帘》华丽登场,精美服饰秀尽显中国时尚。节目组更以“穿越千年的声音”为主题,邀请侗族大歌老歌师潘萨银花,携老中少三代传承人带来原汁原味的《祖公落寨》,紧接着再由著名歌唱家雷佳现场演唱用当代音乐语言重新改编过的侗族民歌《夏蝉之歌》,通过这种独特的表演形式来体会不同的民歌之美。
    此外,节目现场还邀请了不少外国友人成为《非遗公开课》的“学生代表”,现场体验传统技艺的“言传身教”。面对不懂中文又初次接触非遗的外国友人,京剧余派第四代传人、上海市级非遗代表性传承人王珮瑜现场传授京剧念白和“表情包”,少林功夫传承人则现场演示“无语言教学”版《象形拳》,而这堂“实践课”也成为整场节目中互动最为热烈的环节。
    除去外国的“学生代表”,节目中还邀请了两位来自中国国际广播电台的外籍专家共同参与录制,这也是伴随着中央广播电视总台的成立和“三台融合”的新格局下,在《非遗公开课》成功实现的一场融合广播与电视媒体的“中外文化交流”。
    除了创意与传承相结合的节目设计,此次《非遗公开课》在道具选择上也是煞费苦心。为展现传承人娴熟的木活字技艺,节目组特意从浙江瑞安托运来4万多个、总重达七八十斤的木活字;为再现云锦织机的操作方法,让“南京白局”的表演更具地方特色,导演竟然把近4米高、5米多长、重350公斤的云锦大花楼织机搬进演播室,仅安装就耗费了两天时间。
    更值得一提的是,1262岁、价值连城的唐琴“九霄环佩”也再次登上舞台,国家级非物质文化遗产古琴艺术代表性传承人李祥霆现场弹奏了一首《关山月》,重现盛世唐音。“全世界一共有唐琴20张,我弹过11张,以这张琴音韵最佳”,弹奏完毕后李老师介绍说,让观众欣赏悠扬琴声的同时也不禁感慨古人高超的艺术造诣。另外节目组还从全国各地寻来十几套以潮绣手法绣制的嫁衣和现代人利用云锦工艺,还原复制的清代乾隆皇帝龙袍,让观众近距离地感受云锦的华美和工艺的精湛。

下载地址:



本帖子中包含更多资源

您需要 登录 才可以下载或查看,没有帐号?立即注册  

x

举报

回复

6 个评论

您需要登录后才可以回帖 登录 | 立即注册  

本版积分规则

VIP会员招募,免广告,免回复,免收费下载
搜索

高清剧集推荐

更多

高清MV/综艺

更多

客服中心

400-800-8888 周一至周日 8:30-20:30 仅收市话费

关注我们

  • 手机客户端
  • 关注官方微信
关闭

站长推荐上一条 /1 下一条

关于我们
关于我们
友情链接
联系我们
帮助中心
网友中心
购买须知
支付方式
服务支持
资源下载
售后服务
定制流程
关注我们
官方微博
官方空间
官方微信
快速回复 返回顶部 返回列表