开启左侧

[红海行动].Operation.Red.Sea.2018.BluRay.1080p.DTS.x264-CHD[16.96G]

[复制链接]
185 12
[红海行动].Operation.Red.Sea.2018.BluRay.1080p.DTS.x264-CHD    16.96G





◎译  名 刀锋·红海行动
◎片  名 红海行动
◎年  代 2018
◎产  地 中国大陆/香港
◎类  别 动作/战争
◎语  言 汉语普通话/阿拉伯语/英语/索马里语/粤语
◎上映日期 2018-02-16(中国大陆)
◎IMDb评分  7.2/10 from 2,038 users
◎IMDb链接  http://www.imdb.com/title/tt6878882/
◎豆瓣评分 8.3/10 from 431,522 users
◎豆瓣链接 https://movie.douban.com/subject/26861685/
◎片  长 138分钟
◎导  演 林超贤 Dante Lam
◎主  演 张译 Yi Zhang
      黄景瑜 Jingyu Huang
      海清 Hai-Qing
      杜江 Jiang Du
      蒋璐霞 Luxia Jiang
      尹昉 Fang Yin
      王强 Qiang Wang
      郭郁滨 Yubin Guo
      王雨甜 Yutian Wang
      麦亨利 Henry Mai
      张涵予 Hanyu Zhang
      王彦霖 Yanlin Wang

◎简  介

  中东国家伊维亚共和国发生政变,武装冲突不断升级。刚刚在索马里执行完解救人质任务的海军护卫舰临沂号,受命前往伊维亚执行撤侨任务。舰长高云(张涵予 饰)派出杨锐(张译 饰)率领的蛟龙突击队登陆战区,护送华侨安全撤离。谁知恐怖组织扎卡却将撤侨部队逼入交火区,一场激烈的战斗在所难免。与此同时,法籍华人记者夏楠(海清 饰)正在伊维亚追查威廉·柏森博士贩卖核原料的事实,而扎卡则突袭柏森博士所在的公司,意图抢走核原料。混战中,一名隶属柏森博士公司的中国员工成为人质。为了解救该人质,八名蛟龙队员必须潜入有150名恐怖分子的聚集点,他们用自己的信念和鲜血铸成中国军人顽强不屈的丰碑!
  本片根据也门撤侨事件改编。

◎获奖情况

  第8届北京国际电影节  (2018)
  天坛奖 最佳视觉效果奖
  天坛奖(提名) 林超贤

  第25届北京大学生电影节  (2018)
  最佳影片奖
  最佳男演员奖(提名) 张译
  最佳观赏效果奖(提名)

  第4届豆瓣电影年度榜单  (2017)
  最值得期待的华语电影(提名)

  1. Video

  2. ID : 1

  3. Format : AVC

  4. Format/Info : Advanced Video Codec

  5. Format profile : High@L4.1

  6. Format settings : CABAC / 4 Ref Frames

  7. Format settings, CABAC : Yes

  8. Format settings, ReFrames : 4 frames

  9. Codec ID : V_MPEG4/ISO/AVC

  10. Duration : 2 h 18 min

  11. Bit rate : 16.0 Mb/s

  12. Width : 1 920 pixels

  13. Height : 804 pixels

  14. Display aspect ratio : 2.40:1

  15. Frame rate mode : Constant

  16. Frame rate : 24.000 FPS

  17. Color space : YUV

  18. Chroma subsampling : 4:2:0

  19. Bit depth : 8 bits

  20. Scan type : Progressive

  21. Bits/(Pixel*Frame) : 0.432

  22. Stream size : 15.5 GiB (91%)

  23. Writing library : x264 core 155 r2867+74 66b5600 t_mod_Custom_2 [8-bit@all X86_64]

  24. Encoding settings : cabac=1 / ref=4 / deblock=1:-3:-3 / analyse=0x3:0x133 / me=umh / subme=11 / psy=1 / fade_compensate=0.00 / psy_rd=0.95:0.10 / mixed_ref=1 / me_range=48 / chroma_me=1 / trellis=2 / 8x8dct=1 / cqm=0 / deadzone=21,11 / fast_pskip=0 / chroma_qp_offset=-4 / threads=12 / lookahead_threads=2 / sliced_threads=0 / nr=0 / decimate=1 / interlaced=0 / bluray_compat=0 / constrained_intra=0 / fgo=0 / bframes=8 / b_pyramid=2 / b_adapt=2 / b_bias=0 / direct=3 / weightb=1 / open_gop=0 / weightp=2 / keyint=250 / keyint_min=24 / scenecut=40 / intra_refresh=0 / rc_lookahead=30 / rc=2pass / mbtree=0 / bitrate=16000 / ratetol=1.0 / qcomp=0.70 / qpmin=0:0:0 / qpmax=69:69:69 / qpstep=4 / cplxblur=20.0 / qblur=0.5 / vbv_maxrate=35000 / vbv_bufsize=35000 / nal_hrd=none / filler=0 / ip_ratio=1.40 / pb_ratio=1.30 / aq=3:1.00 / aq-sensitivity=10.00 / aq-factor=1.00:1.00:1.00 / aq2=0 / aq3=2:[0.50:0.50]:[0.50:0.50]:[0.50:0.50]:[0.50:0.50] / aq3-sensitivity=10.00 / aq3-factor=[1.00:1.00]:[1.00:1.00]:[1.00:1.00] / aq3-boundary=192:64:24

  25. Language : Chinese

  26. Default : Yes

  27. Forced : No



  28. Audio

  29. ID : 2

  30. Format : DTS

  31. Format/Info : Digital Theater Systems

  32. Codec ID : A_DTS

  33. Duration : 2 h 18 min

  34. Bit rate mode : Constant

  35. Bit rate : 1 509 kb/s

  36. Channel(s) : 6 channels

  37. Channel positions : Front: L C R, Side: L R, LFE

  38. Sampling rate : 48.0 kHz

  39. Frame rate : 93.750 FPS (512 SPF)

  40. Bit depth : 24 bits

  41. Compression mode : Lossy

  42. Stream size : 1.46 GiB (9%)

  43. Language : Chinese

  44. Default : Yes

  45. Forced : No



  46. Text

  47. ID : 3

  48. Format : PGS

  49. Muxing mode : zlib

  50. Codec ID : S_HDMV/PGS

  51. Codec ID/Info : Picture based subtitle format used on BDs/HD-DVDs

  52. Duration : 2 h 13 min

  53. Bit rate : 23.5 kb/s

  54. Count of elements : 2908

  55. Stream size : 22.5 MiB (0%)

  56. Language : Chinese

  57. Default : Yes

  58. Forced : No



  59. Menu

  60. 00:00:00.000 : en:00:00:00.000

  61. 00:13:45.250 : en:00:13:45.250

  62. 00:21:00.125 : en:00:21:00.125

  63. 00:30:05.000 : en:00:30:05.000

  64. 00:43:07.000 : en:00:43:07.000

  65. 00:50:28.333 : en:00:50:28.333

  66. 01:01:29.708 : en:01:01:29.708

  67. 01:14:04.625 : en:01:14:04.625

  68. 01:21:09.083 : en:01:21:09.083

  69. 01:33:48.833 : en:01:33:48.833

  70. 01:42:31.458 : en:01:42:31.458

  71. 01:52:23.667 : en:01:52:23.667

  72. 02:01:09.083 : en:02:01:09.083

  73. 02:16:05.500 : en:02:16:05.500
复制代码






BT种子
游客,如果您要查看本帖隐藏内容请回复

本帖子中包含更多资源

您需要 登录 才可以下载或查看,没有帐号?立即注册  

x

举报

回复

12 个评论

您需要登录后才可以回帖 登录 | 立即注册  

本版积分规则

高清剧集推荐

更多

高清MV/综艺

更多

客服中心

400-800-8888 周一至周日 8:30-20:30 仅收市话费

关注我们

  • 手机客户端
  • 关注官方微信
关闭

站长推荐上一条 /1 下一条

关于我们
关于我们
友情链接
联系我们
帮助中心
网友中心
购买须知
支付方式
服务支持
资源下载
售后服务
定制流程
关注我们
官方微博
官方空间
官方微信
快速回复 返回顶部 返回列表