开启左侧

蝙蝠侠重现江湖 Batman.Returns.1992.1080i.CHC.HDTV.H.264.DD5.1-FLTTH.ts 7.32G

[复制链接]
123 3

  1. General
  2. ID                                       : 1 (0x1)
  3. Complete name                            : Batman.Returns.1992.1080i.CHC.HDTV.H.264.DD5.1-FLTTH.ts
  4. Format                                   : MPEG-TS
  5. File size                                : 7.32 GiB
  6. Duration                                 : 1 h 57 min
  7. Overall bit rate mode                    : Variable
  8. Overall bit rate                         : 8 937 kb/s

  9. Video
  10. ID                                       : 256 (0x100)
  11. Menu ID                                  : 1 (0x1)
  12. Format                                   : AVC
  13. Format/Info                              : Advanced Video Codec
  14. Format profile                           : High@L4
  15. Format settings, CABAC                   : Yes
  16. Format settings, ReFrames                : 3 frames
  17. Codec ID                                 : 27
  18. Duration                                 : 1 h 57 min
  19. Bit rate                                 : 8 043 kb/s
  20. Width                                    : 1 920 pixels
  21. Height                                   : 1 080 pixels
  22. Display aspect ratio                     : 16:9
  23. Frame rate                               : 25.000 FPS
  24. Standard                                 : Component
  25. Color space                              : YUV
  26. Chroma subsampling                       : 4:2:0
  27. Bit depth                                : 8 bits
  28. Scan type                                : Interlaced
  29. Scan type, store method                  : Separated fields
  30. Scan order                               : Top Field First
  31. Bits/(Pixel*Frame)                       : 0.155
  32. Stream size                              : 6.58 GiB (90%)
  33. Color range                              : Limited
  34. Color primaries                          : BT.709
  35. Transfer characteristics                 : BT.709
  36. Matrix coefficients                      : BT.709

  37. Audio
  38. ID                                       : 257 (0x101)
  39. Menu ID                                  : 1 (0x1)
  40. Format                                   : AC-3
  41. Format/Info                              : Audio Coding 3
  42. Format settings, Endianness              : Big
  43. Codec ID                                 : 129
  44. Duration                                 : 1 h 57 min
  45. Bit rate mode                            : Constant
  46. Bit rate                                 : 448 kb/s
  47. Channel(s)                               : 6 channels
  48. Channel positions                        : Front: L C R, Side: L R, LFE
  49. Sampling rate                            : 48.0 kHz
  50. Frame rate                               : 31.250 FPS (1536 spf)
  51. Bit depth                                : 16 bits
  52. Compression mode                         : Lossy
  53. Delay relative to video                  : -975 ms
  54. Stream size                              : 376 MiB (5%)
  55. Language                                 : English
  56. Service kind                             : Complete Main

  57. Menu
  58. ID                                       : 4096 (0x1000)
  59. Menu ID                                  : 1 (0x1)
  60. Duration                                 : 1 h 57 min
  61. List                                     : 256 (0x100) (AVC) / 257 (0x101) (AC-3, English)
  62. Language                                 :  / English
  63. Service name                             : CHC
  64. Service provider                         : BGCTV
  65. Service type                             : user defined

复制代码
电影简介:
《蝙蝠侠归来》是由美国华纳兄弟影业公司出品的动作片,由蒂姆·波顿执导,迈克尔·基顿、米歇尔·菲佛、丹尼·德维托领衔主演。影片于1992年6月19日在美国上映。

剧情简介:
一个被父母所遗弃的婴儿,他漂落到了下水道,被企鹅所收养,成了企鹅人。在一次圣诞聚会上企鹅人抓住了哥谭市一名阴险的富商,他们达成了互相合作的协议, 富商的助理塞琳娜因发现了一项卑鄙计划而被杀害,坠楼身亡,但在一群猫的魔力下,塞琳娜起死回生,并且性情大变,成为了一名猫女。

在富商麦克斯的策划下,企鹅人从沟渠来到了地面世界上,并被社会所接纳,麦克斯还企图让企鹅人竞选市长,以控制整个哥谭市,为此,企鹅人的手下在城里大肆破坏,以引发民众对市长的不满,由于误会,猫女与蝙蝠侠也成了敌对的关系,猫女与企鹅人联手以对付蝙蝠侠,企鹅人杀害了典礼小姐,陷害蝙蝠侠,又对猫女下了毒手,企鹅人改造了蝙蝠侠的汽车,让它在市内横冲直撞,但蝙蝠侠却努力消除了企鹅人的控制,并乘机录下了企鹅人的疯狂言论。在企鹅人发表竞选演说时,布鲁斯通过发射广播信号揭穿了他的真面目。 企鹅人被赶回了下水道。他因失败而发狂,企图杀死哥谭市中所有的长子,但他绑架所有长子的计划却被蝙蝠侠和猫女挫败。他再次愤怒得发狂,企图通过企鹅发射火箭毁灭整个城市。但蝙蝠侠却干扰了他的信号,中止了企鹅的行动,企鹅人众叛亲离。在逃脱时,他被蝙蝠侠截住。一场搏斗之后,蝙蝠侠打败了企鹅人。企鹅们发射的火箭摧毁了企鹅人的基地,企鹅人也在要杀蝙蝠侠时伤重身亡。企鹅们把他的尸体送入了水底,在大雪之中,布鲁斯收养了塞琳娜的黑猫,远处高楼上,猫女看着他们远去。

下载地址:
https://pan.baidu.com/s/1o7PQ8yA

解压密码:71526483


本帖子中包含更多资源

您需要 登录 才可以下载或查看,没有帐号?立即注册  

x

举报

回复

3 个评论

JJinxyy  720p  发表于 2017-12-4 10:11:32  | 显示全部楼层
thanks                                                                              
您需要登录后才可以回帖 登录 | 立即注册  

本版积分规则

高清剧集推荐

更多

高清MV/综艺

更多

客服中心

400-800-8888 周一至周日 8:30-20:30 仅收市话费

关注我们

  • 手机客户端
  • 关注官方微信
关闭

站长推荐上一条 /1 下一条

关于我们
关于我们
友情链接
联系我们
帮助中心
网友中心
购买须知
支付方式
服务支持
资源下载
售后服务
定制流程
关注我们
官方微博
官方空间
官方微信
快速回复 返回顶部 返回列表