开启左侧

星际特工:千星之城 Valerian.and.the.City.of.a.Thousand.Planets.2017.R6.4K.2160p.QY.WEB-DL.x264.AAC-FLTTH.mp4 6.14G

[复制链接]
628 8

  1. General
  2. Complete name                            : Valerian.and.the.City.of.a.Thousand.Planets.2017.R6.4K.2160p.QY.WEB-DL.x264.AAC-FLTTH.mp4
  3. Format                                   : MPEG-4
  4. Format profile                           : Base Media
  5. Codec ID                                 : isom (isom/iso2/avc1/mp41)
  6. File size                                : 6.14 GiB
  7. Duration                                 : 2 h 16 min
  8. Overall bit rate                         : 6 426 kb/s
  9. Writing application                      : Lavf58.0.102

  10. Video
  11. ID                                       : 1
  12. Format                                   : AVC
  13. Format/Info                              : Advanced Video Codec
  14. Format profile                           : High@L5.1
  15. Format settings, CABAC                   : Yes
  16. Format settings, ReFrames                : 3 frames
  17. Codec ID                                 : avc1
  18. Codec ID/Info                            : Advanced Video Coding
  19. Duration                                 : 2 h 16 min
  20. Bit rate                                 : 6 228 kb/s
  21. Width                                    : 3 840 pixels
  22. Height                                   : 1 608 pixels
  23. Display aspect ratio                     : 2.40:1
  24. Frame rate mode                          : Constant
  25. Frame rate                               : 25.000 FPS
  26. Color space                              : YUV
  27. Chroma subsampling                       : 4:2:0
  28. Bit depth                                : 8 bits
  29. Scan type                                : Progressive
  30. Bits/(Pixel*Frame)                       : 0.040
  31. Stream size                              : 5.95 GiB (97%)
  32. Color range                              : Limited
  33. Color primaries                          : BT.709
  34. Transfer characteristics                 : BT.709
  35. Matrix coefficients                      : BT.709

  36. Audio
  37. ID                                       : 2
  38. Format                                   : AAC
  39. Format/Info                              : Advanced Audio Codec
  40. Format profile                           : LC
  41. Codec ID                                 : 40
  42. Duration                                 : 2 h 16 min
  43. Bit rate mode                            : Constant
  44. Bit rate                                 : 192 kb/s
  45. Channel(s)                               : 2 channels
  46. Channel positions                        : Front: L R
  47. Sampling rate                            : 44.1 kHz
  48. Frame rate                               : 43.066 FPS (1024 spf)
  49. Compression mode                         : Lossy
  50. Stream size                              : 186 MiB (3%)
  51. Default                                  : Yes
  52. Alternate group                          : 1

复制代码
电影简介:
    《星际特工:千星之城》是由法国欧罗巴电影公司出品的科幻片,由吕克·贝松执导,戴恩·德哈恩、卡拉·迪瓦伊、克里夫·欧文、蕾哈娜、伊桑·霍克、赫比·汉考克、吴亦凡等联合主演。该片根据法国系列漫画《韦勒瑞恩和洛瑞琳》改编,讲述了具有丰富经验的特工韦勒瑞恩与洛瑞琳奉命来到阿尔法千星之城,在不同的时间与空间维度穿梭,完成一系列冒险任务的故事。该片于2017年7月21日在美国上映,2017年8月25日在中国内地上映。

剧情简介:
    人类和众多外星种族共同生活在一个名为千星之城阿尔法的繁华星际大都市,数百年来,千星之城阿尔法成为各族群和平共处的美妙天堂,它繁荣昌盛,它欣欣向上,然而,宇宙的神秘黑暗力量正试图摧毁这一切。韦勒瑞恩(戴恩·德哈恩饰)和洛瑞琳(卡拉·迪瓦伊饰)被选择成为阿尔法的守护者,他们俩是警卫部的执行人员,被任命去拦截一种稀有物品的交易。这种稀有物品与一个本该在数十年前就消失的稀有族群存在神秘的关联。然后他们来到了巨大的漂浮都市阿尔法城,这时他们的指挥官Arun Filitt(克里夫·欧文饰)在指挥中心遭到绑架,这对搭档开始意识到手中物品的不寻常价值。二人追寻凶手而来到位于阿尔法城心脏的死亡之境,发现自己身陷一场正在发酵的星际事件中——他们需要通过控制手中那个能够改变宇宙秩序的物品,在其他物种被卷进来之前救出Arun......

下载地址:
https://pan.baidu.com/s/1bprr2nd


本帖子中包含更多资源

您需要 登录 才可以下载或查看,没有帐号?立即注册  

x

举报

回复

8 个评论

您需要登录后才可以回帖 登录 | 立即注册  

本版积分规则

VIP会员招募,免广告,免回复,免收费下载
搜索

高清剧集推荐

更多

高清MV/综艺

更多

客服中心

400-800-8888 周一至周日 8:30-20:30 仅收市话费

关注我们

  • 手机客户端
  • 关注官方微信
关闭

站长推荐上一条 /1 下一条

关于我们
关于我们
友情链接
联系我们
帮助中心
网友中心
购买须知
支付方式
服务支持
资源下载
售后服务
定制流程
关注我们
官方微博
官方空间
官方微信
快速回复 返回顶部 返回列表