开启左侧

[招笑猫].Laughing.Lucky.Cats.2017.720p.BluRay.x264-WiKi[5G]

[复制链接]
152 2
[招笑猫].Laughing.Lucky.Cats.2017.720p.BluRay.x264-WiKi   5G



◎译  名 招笑猫/微笑招财猫/微笑的招财猫/搞笑招手猫
◎片  名 笑う招き猫
◎年  代 2017
◎产  地 日本
◎类  别 喜剧
◎语  言 日语
◎上映日期 2017-04-29(日本)
◎豆瓣评分 6.2/10 from 69 users
◎豆瓣链接 https://movie.douban.com/subject/26964860/
◎导  演 饭塚健 Ken Iizuka
◎主  演 清水富美加 Fumika Shimizu
      松井玲奈 Rena Matsui
      落合扶树 Motoki Ochiai
      荒井敦史
      浜野谦太 Kenta Hamano
      前野朋哉 Tomoya Maeno
      稻叶友 Yu Inaba
      那須晃行
      中西茂樹
      犬飼直紀
      森田想
      诹访太朗 Tarô Suwa
      岩井堂聖子
      岛田久作 Kyûsaku Shimada

◎简  介

  本片讲述了女漫才师(类似中国的相声)瞳(清水富美加饰)和亚香子(松井玲奈饰)一起组成年轻的漫才搭档“亚香子和瞳”,在搞笑的世界中虽然饱受挫折却结成坚固的友情、不停奋斗、一起追梦的青春感人故事

  1. Video

  2. ID                                       : 1

  3. Format                                   : AVC

  4. Format/Info                              : Advanced Video Codec

  5. Format profile                           : High@L4.1

  6. Format settings                          : CABAC / 12 Ref Frames

  7. Format settings, CABAC                   : Yes

  8. Format settings, ReFrames                : 12 frames

  9. Codec ID                                 : V_MPEG4/ISO/AVC

  10. Duration                                 : 2 h 7 min

  11. Bit rate                                 : 5 154 kb/s

  12. Width                                    : 1 280 pixels

  13. Height                                   : 536 pixels

  14. Display aspect ratio                     : 2.40:1

  15. Frame rate mode                          : Constant

  16. Frame rate                               : 23.976 (24000/1001) FPS

  17. Color space                              : YUV

  18. Chroma subsampling                       : 4:2:0

  19. Bit depth                                : 8 bits

  20. Scan type                                : Progressive

  21. Bits/(Pixel*Frame)                       : 0.313

  22. Stream size                              : 4.59 GiB (92%)

  23. Writing library                          : x264 core 129 r2245+704+36 8e61944 tMod+MixAQ [8-bit@4:2:0 X86_64]

  24. Encoding settings                        : cabac=1 / ref=12 / deblock=1:-3:-3 / analyse=0x3:0x133 / me=umh / subme=11 / psy=1 / fade_compensate=0.00 / psy_rd=1.05:0.10 / mixed_ref=1 / me_range=32 / chroma_me=1 / trellis=2 / 8x8dct=1 / cqm=0 / deadzone=21,11 / fast_pskip=0 / chroma_qp_offset=-3 / threads=18 / lookahead_threads=3 / sliced_threads=0 / nr=0 / decimate=0 / interlaced=0 / bluray_compat=0 / constrained_intra=0 / fgo=0 / bframes=10 / b_pyramid=2 / b_adapt=2 / b_bias=0 / direct=3 / weightb=1 / open_gop=0 / weightp=2 / keyint=250 / keyint_min=23 / scenecut=40 / intra_refresh=0 / rc=2pass / mbtree=0 / bitrate=5154 / ratetol=1.0 / qcomp=0.70 / qpmin=0 / qpmax=69 / qpstep=4 / cplxblur=20.0 / qblur=0.5 / ip_ratio=1.40 / pb_ratio=1.30 / aq=1 / aq-strength=0.90 / aq-sensitivity=10.00 / aq-ifactor=1.00 / aq-pfactor=1.00 / aq-bfactor=1.00 / aq2=0

  25. Language                                 : Japanese

  26. Default                                  : Yes

  27. Forced                                   : No



  28. Audio

  29. ID                                       : 2

  30. Format                                   : AC-3

  31. Format/Info                              : Audio Coding 3

  32. Codec ID                                 : A_AC3

  33. Duration                                 : 2 h 7 min

  34. Bit rate mode                            : Constant

  35. Bit rate                                 : 448 kb/s

  36. Channel(s)                               : 6 channels

  37. Channel positions                        : Front: L C R, Side: L R, LFE

  38. Sampling rate                            : 48.0 kHz

  39. Frame rate                               : 31.250 FPS (1536 SPF)

  40. Bit depth                                : 16 bits

  41. Compression mode                         : Lossy

  42. Stream size                              : 409 MiB (8%)

  43. Language                                 : Japanese

  44. Service kind                             : Complete Main

  45. Default                                  : Yes

  46. Forced                                   : No



  47. Text #1

  48. ID                                       : 3

  49. Format                                   : ASS

  50. Codec ID                                 : S_TEXT/ASS

  51. Codec ID/Info                            : Advanced Sub Station Alpha

  52. Duration                                 : 2 h 6 min

  53. Bit rate                                 : 81 b/s

  54. Count of elements                        : 1858

  55. Compression mode                         : Lossless

  56. Stream size                              : 75.0 KiB (0%)

  57. Title                                    : Simplified

  58. Language                                 : Chinese

  59. Default                                  : Yes

  60. Forced                                   : No



  61. Text #2

  62. ID                                       : 4

  63. Format                                   : ASS

  64. Codec ID                                 : S_TEXT/ASS

  65. Codec ID/Info                            : Advanced Sub Station Alpha

  66. Duration                                 : 2 h 6 min

  67. Bit rate                                 : 81 b/s

  68. Count of elements                        : 1859

  69. Compression mode                         : Lossless

  70. Stream size                              : 75.0 KiB (0%)

  71. Title                                    : Traditional

  72. Language                                 : Chinese

  73. Default                                  : No

  74. Forced                                   : No



  75. Menu

  76. 00:00:00.000                             : en:00:00:00.000

  77. 00:12:09.812                             : en:00:12:09.812

  78. 00:27:49.667                             : en:00:27:49.667

  79. 00:46:23.447                             : en:00:46:23.447

  80. 01:05:28.507                             : en:01:05:28.507

  81. 01:19:07.075                             : en:01:19:07.075

  82. 01:41:11.940                             : en:01:41:11.940

  83. 01:56:38.408                             : en:01:56:38.408

  84. 02:07:28.641                             : en:02:07:28.641
复制代码












BT种子
游客,如果您要查看本帖隐藏内容请回复



电驴链接
游客,如果您要查看本帖隐藏内容请回复

本帖子中包含更多资源

您需要 登录 才可以下载或查看,没有帐号?立即注册  

x

举报

回复

2 个评论

cjy9219  1080p  发表于 2017-12-25 08:36:39  | 显示全部楼层
颜值不高啊
frankman  原盘  发表于 2017-12-29 00:59:17  | 显示全部楼层
~~非常感謝大大的分享~~
您需要登录后才可以回帖 登录 | 立即注册  

本版积分规则

高清剧集推荐

更多

高清MV/综艺

更多

客服中心

400-800-8888 周一至周日 8:30-20:30 仅收市话费

关注我们

  • 手机客户端
  • 关注官方微信
关闭

站长推荐上一条 /1 下一条

关于我们
关于我们
友情链接
联系我们
帮助中心
网友中心
购买须知
支付方式
服务支持
资源下载
售后服务
定制流程
关注我们
官方微博
官方空间
官方微信
快速回复 返回顶部 返回列表