开启左侧

[BT下载]金刚:骷髅岛[3D左右]2017.1080p.3D.BluRay.Half-SBS.x264.DTS-HD.MA.7.1-FGT 25G

[复制链接]
284 0

马上注册,结交更多高清迷友,分享更多资源,让你轻松玩转社区。

您需要 登录 才可以下载或查看,没有帐号?立即注册  

x
-->

◎译  名 金刚:骷髅岛
◎片  名 Kong: Skull Island
◎年  代 2017
◎产  地 美国
◎类  别 动作/奇幻/冒险
◎语  言 英语/越南语/日语
◎上映日期 2017-02-28(伦敦首映)/2017-03-10(美国)/2017-03-24(中国大陆)
◎IMDb评分  6.9/10 from 109,639 users
◎IMDb链接  http://www.imdb.com/title/tt3731562/
◎豆瓣评分 6.7/10 from 105,482 users
◎豆瓣链接 https://movie.douban.com/subject/26309788/
◎高清迷整理 http://www.hdmee.com http://www.btbtt.pw
◎片  长 119分钟
◎导  演 乔丹·沃格特-罗伯茨 Jordan Vogt-Roberts
◎主  演 汤姆·希德勒斯顿 Tom Hiddleston
      布丽·拉尔森 Brie Larson
      塞缪尔·杰克逊 Samuel L. Jackson
      约翰·古德曼 John Goodman
      景甜 Tian Jing
      约翰·C·赖利 John C. Reilly
      托比·凯贝尔 Toby Kebbell
      科里·霍金斯 Corey Hawkins
      汤姆·威尔金森 Tom Wilkinson
      托马斯·曼 Thomas Mann
      杰森·米切尔 Jason Mitchell
      谢伊·惠格姆 Shea Whigham
      约翰·奥提兹 John Ortiz
      尤金·科德罗 Eugene Cordero


◎简  介


  上世纪70年代,一支集结了科考队员、探险家、战地摄影记者、军人的探险队,冒险前往南太平洋上的神秘岛屿——骷髅岛。他们的到来惊扰了岛上之神——史上最大金刚。经过一番惨烈的激战之后,探险队员散落在了岛屿各处。此时,队员们才意识到这次探险并不是一次单纯的科考任务,而是去探索怪兽存在的证明。
  在这片与世隔绝、危险密布的丛林,无数怪异的史前生物暗藏其中,时刻威胁着他们的生命。队员们还遇到了神秘的原始部落,金刚的身世和其守护岛屿的原因也被逐渐揭开,原来,恐怖阴森的骷髅岛上还蛰伏着更凶狠残暴的怪兽……




Video
ID                                       : 1
Format                                   : AVC
Format/Info                              : Advanced Video Codec
Format profile                           : [email protected]
Format settings, CABAC                   : Yes
Format settings, ReFrames                : 1 frame
Format settings, GOP                     : M=1, N=24
Codec ID                                 : V_MPEG4/ISO/AVC
Duration                                 : 1 h 58 min
Bit rate mode                            : Constant
Nominal bit rate                         : 15.5 Mb/s
Width                                    : 1 920 pixels
Height                                   : 1 080 pixels
Display aspect ratio                     : 16:9
Frame rate mode                          : Constant
Frame rate                               : 23.976 (24000/1001) FPS
Color space                              : YUV
Chroma subsampling                       : 4:2:0
Bit depth                                : 8 bits
Scan type                                : Progressive
Bits/(Pixel*Frame)                       : 0.312
Title                                    : Kong.Skull.Island.2017.1080p.3D.BluRay.Half-SBS.x264.DTS-HD.MA.7.1-FGT
Default                                  : Yes
Forced                                   : No
Color range                              : Limited
Color primaries                          : BT.709
Transfer characteristics                 : BT.709
Matrix coefficients                      : BT.709


Audio #1
ID                                       : 2
Format                                   : DTS
Format/Info                              : Digital Theater Systems
Format profile                           : MA / Core
Mode                                     : 16
Format settings, Endianness              : Big
Codec ID                                 : A_DTS
Duration                                 : 1 h 58 min
Bit rate mode                            : Variable / Constant
Bit rate                                 : Unknown / 1 509 kb/s
Channel(s)                               : 8 channels / 6 channels
Channel positions                        : Front: L C R, Side: L R, Back: L R, LFE / Front: L C R, Side: L R, LFE
Sampling rate                            : 48.0 kHz
Frame rate                               : 93.750 FPS (512 spf)
Bit depth                                : 24 bits
Compression mode                         : Lossless / Lossy
Title                                    : Kong.Skull.Island.2017.1080p.3D.BluRay.Half-SBS.x264.DTS-HD.MA.7.1-FGT
Language                                 : English
Default                                  : Yes
Forced                                   : No


Audio #2
ID                                       : 3
Format                                   : DTS
Format/Info                              : Digital Theater Systems
Format profile                           : MA / Core
Mode                                     : 16
Format settings, Endianness              : Big
Codec ID                                 : A_DTS
Duration                                 : 1 h 58 min
Bit rate mode                            : Variable / Constant
Bit rate                                 : Unknown / 1 509 kb/s
Channel(s)                               : 6 channels
Channel positions                        : Front: L C R, Side: L R, LFE
Sampling rate                            : 48.0 kHz
Frame rate                               : 93.750 FPS (512 spf)
Bit depth                                : 16 bits
Compression mode                         : Lossless / Lossy
Title                                    : Kong.Skull.Island.2017.1080p.3D.BluRay.Half-SBS.x264.DTS-HD.MA.7.1-FGT
Language                                 : English
Default                                  : No
Forced                                   : No


Audio #3
ID                                       : 4
Format                                   : DTS
Format/Info                              : Digital Theater Systems
Mode                                     : 16
Format settings, Endianness              : Big
Codec ID                                 : A_DTS
Duration                                 : 1 h 58 min
Bit rate mode                            : Constant
Bit rate                                 : 1 509 kb/s
Channel(s)                               : 6 channels
Channel positions                        : Front: L C R, Side: L R, LFE
Sampling rate                            : 48.0 kHz
Frame rate                               : 93.750 FPS (512 spf)
Bit depth                                : 16 bits
Compression mode                         : Lossy
Stream size                              : 1.25 GiB (5%)
Title                                    : Kong.Skull.Island.2017.1080p.3D.BluRay.Half-SBS.x264.DTS-HD.MA.7.1-FGT
Language                                 : English
Default                                  : No
Forced                                   : No


Audio #4
ID                                       : 5
Format                                   : AC-3
Format/Info                              : Audio Coding 3
Format settings, Endianness              : Big
Codec ID                                 : A_AC3
Duration                                 : 1 h 58 min
Bit rate mode                            : Constant
Bit rate                                 : 448 kb/s
Channel(s)                               : 6 channels
Channel positions                        : Front: L C R, Side: L R, LFE
Sampling rate                            : 48.0 kHz
Frame rate                               : 31.250 FPS (1536 spf)
Bit depth                                : 16 bits
Compression mode                         : Lossy
Stream size                              : 379 MiB (1%)
Title                                    : Kong.Skull.Island.2017.1080p.3D.BluRay.Half-SBS.x264.DTS-HD.MA.7.1-FGT
Language                                 : English
Service kind                             : Complete Main
Default                                  : No
Forced                                   : No


Audio #5
ID                                       : 6
Format                                   : DTS
Format/Info                              : Digital Theater Systems
Format profile                           : MA / Core
Mode                                     : 16
Format settings, Endianness              : Big
Codec ID                                 : A_DTS
Duration                                 : 1 h 58 min
Bit rate mode                            : Variable / Constant
Bit rate                                 : Unknown / 1 509 kb/s
Channel(s)                               : 6 channels
Channel positions                        : Front: L C R, Side: L R, LFE
Sampling rate                            : 48.0 kHz
Frame rate                               : 93.750 FPS (512 spf)
Bit depth                                : 16 bits
Compression mode                         : Lossless / Lossy
Title                                    : Kong.Skull.Island.2017.1080p.3D.BluRay.Half-SBS.x264.DTS-HD.MA.7.1-FGT
Language                                 : French
Default                                  : No
Forced                                   : No


Audio #6
ID                                       : 7
Format                                   : DTS
Format/Info                              : Digital Theater Systems
Mode                                     : 16
Format settings, Endianness              : Big
Codec ID                                 : A_DTS
Duration                                 : 1 h 58 min
Bit rate mode                            : Constant
Bit rate                                 : 1 509 kb/s
Channel(s)                               : 6 channels
Channel positions                        : Front: L C R, Side: L R, LFE
Sampling rate                            : 48.0 kHz
Frame rate                               : 93.750 FPS (512 spf)
Bit depth                                : 16 bits
Compression mode                         : Lossy
Stream size                              : 1.25 GiB (5%)
Title                                    : Kong.Skull.Island.2017.1080p.3D.BluRay.Half-SBS.x264.DTS-HD.MA.7.1-FGT
Language                                 : French
Default                                  : No
Forced                                   : No


Audio #7
ID                                       : 8
Format                                   : AC-3
Format/Info                              : Audio Coding 3
Format settings, Endianness              : Big
Codec ID                                 : A_AC3
Duration                                 : 1 h 58 min
Bit rate mode                            : Constant
Bit rate                                 : 448 kb/s
Channel(s)                               : 6 channels
Channel positions                        : Front: L C R, Side: L R, LFE
Sampling rate                            : 48.0 kHz
Frame rate                               : 31.250 FPS (1536 spf)
Bit depth                                : 16 bits
Compression mode                         : Lossy
Stream size                              : 379 MiB (1%)
Title                                    : Kong.Skull.Island.2017.1080p.3D.BluRay.Half-SBS.x264.DTS-HD.MA.7.1-FGT
Language                                 : Spanish
Service kind                             : Complete Main
Default                                  : No
Forced                                   : No


Audio #8
ID                                       : 9
Format                                   : AC-3
Format/Info                              : Audio Coding 3
Format settings, Endianness              : Big
Codec ID                                 : A_AC3
Duration                                 : 1 h 58 min
Bit rate mode                            : Constant
Bit rate                                 : 448 kb/s
Channel(s)                               : 6 channels
Channel positions                        : Front: L C R, Side: L R, LFE
Sampling rate                            : 48.0 kHz
Frame rate                               : 31.250 FPS (1536 spf)
Bit depth                                : 16 bits
Compression mode                         : Lossy
Stream size                              : 379 MiB (1%)
Title                                    : Kong.Skull.Island.2017.1080p.3D.BluRay.Half-SBS.x264.DTS-HD.MA.7.1-FGT
Language                                 : Chinese
Service kind                             : Complete Main
Default                                  : No
Forced                                   : No


Audio #9
ID                                       : 10
Format                                   : AC-3
Format/Info                              : Audio Coding 3
Format settings, Endianness              : Big
Codec ID                                 : A_AC3
Duration                                 : 1 h 58 min
Bit rate mode                            : Constant
Bit rate                                 : 448 kb/s
Channel(s)                               : 6 channels
Channel positions                        : Front: L C R, Side: L R, LFE
Sampling rate                            : 48.0 kHz
Frame rate                               : 31.250 FPS (1536 spf)
Bit depth                                : 16 bits
Compression mode                         : Lossy
Stream size                              : 379 MiB (1%)
Title                                    : Kong.Skull.Island.2017.1080p.3D.BluRay.Half-SBS.x264.DTS-HD.MA.7.1-FGT
Language                                 : Hindi
Service kind                             : Complete Main
Default                                  : No
Forced                                   : No


Audio #10
ID                                       : 11
Format                                   : AC-3
Format/Info                              : Audio Coding 3
Format settings, Endianness              : Big
Codec ID                                 : A_AC3
Duration                                 : 1 h 58 min
Bit rate mode                            : Constant
Bit rate                                 : 448 kb/s
Channel(s)                               : 6 channels
Channel positions                        : Front: L C R, Side: L R, LFE
Sampling rate                            : 48.0 kHz
Frame rate                               : 31.250 FPS (1536 spf)
Bit depth                                : 16 bits
Compression mode                         : Lossy
Stream size                              : 379 MiB (1%)
Title                                    : Kong.Skull.Island.2017.1080p.3D.BluRay.Half-SBS.x264.DTS-HD.MA.7.1-FGT
Language                                 : Polish
Service kind                             : Complete Main
Default                                  : No
Forced                                   : No


Audio #11
ID                                       : 12
Format                                   : AC-3
Format/Info                              : Audio Coding 3
Format settings, Endianness              : Big
Codec ID                                 : A_AC3
Duration                                 : 1 h 58 min
Bit rate mode                            : Constant
Bit rate                                 : 448 kb/s
Channel(s)                               : 6 channels
Channel positions                        : Front: L C R, Side: L R, LFE
Sampling rate                            : 48.0 kHz
Frame rate                               : 31.250 FPS (1536 spf)
Bit depth                                : 16 bits
Compression mode                         : Lossy
Stream size                              : 379 MiB (1%)
Title                                    : Kong.Skull.Island.2017.1080p.3D.BluRay.Half-SBS.x264.DTS-HD.MA.7.1-FGT
Language                                 : Russian
Service kind                             : Complete Main
Default                                  : No
Forced                                   : No


Audio #12
ID                                       : 13
Format                                   : AC-3
Format/Info                              : Audio Coding 3
Format settings, Endianness              : Big
Codec ID                                 : A_AC3
Duration                                 : 1 h 58 min
Bit rate mode                            : Constant
Bit rate                                 : 448 kb/s
Channel(s)                               : 6 channels
Channel positions                        : Front: L C R, Side: L R, LFE
Sampling rate                            : 48.0 kHz
Frame rate                               : 31.250 FPS (1536 spf)
Bit depth                                : 16 bits
Compression mode                         : Lossy
Stream size                              : 379 MiB (1%)
Title                                    : Kong.Skull.Island.2017.1080p.3D.BluRay.Half-SBS.x264.DTS-HD.MA.7.1-FGT
Language                                 : Thai
Service kind                             : Complete Main
Default                                  : No
Forced                                   : No


Text #1
ID                                       : 14
Format                                   : PGS
Muxing mode                              : zlib
Codec ID                                 : S_HDMV/PGS
Codec ID/Info                            : Picture based subtitle format used on BDs/HD-DVDs
Title                                    : English-PGS
Language                                 : English
Default                                  : Yes
Forced                                   : No


Text #2
ID                                       : 15
Format                                   : PGS
Muxing mode                              : zlib
Codec ID                                 : S_HDMV/PGS
Codec ID/Info                            : Picture based subtitle format used on BDs/HD-DVDs
Title                                    : French-PGS
Language                                 : French
Default                                  : No
Forced                                   : No


Text #3
ID                                       : 16
Format                                   : PGS
Muxing mode                              : zlib
Codec ID                                 : S_HDMV/PGS
Codec ID/Info                            : Picture based subtitle format used on BDs/HD-DVDs
Title                                    : Spanish-PGS
Language                                 : Spanish
Default                                  : No
Forced                                   : No


Text #4
ID                                       : 17
Format                                   : PGS
Muxing mode                              : zlib
Codec ID                                 : S_HDMV/PGS
Codec ID/Info                            : Picture based subtitle format used on BDs/HD-DVDs
Title                                    : Dutch-PGS
Language                                 : Dutch
Default                                  : No
Forced                                   : No


Text #5
ID                                       : 18
Format                                   : PGS
Muxing mode                              : zlib
Codec ID                                 : S_HDMV/PGS
Codec ID/Info                            : Picture based subtitle format used on BDs/HD-DVDs
Title                                    : Chinese-PGS
Language                                 : Chinese
Default                                  : No
Forced                                   : No


Text #6
ID                                       : 19
Format                                   : PGS
Muxing mode                              : zlib
Codec ID                                 : S_HDMV/PGS
Codec ID/Info                            : Picture based subtitle format used on BDs/HD-DVDs
Title                                    : Chinese-PGS
Language                                 : Chinese
Default                                  : No
Forced                                   : No


Text #7
ID                                       : 20
Format                                   : PGS
Muxing mode                              : zlib
Codec ID                                 : S_HDMV/PGS
Codec ID/Info                            : Picture based subtitle format used on BDs/HD-DVDs
Title                                    : Chinese-PGS
Language                                 : Chinese
Default                                  : No
Forced                                   : No


Text #8
ID                                       : 21
Format                                   : PGS
Muxing mode                              : zlib
Codec ID                                 : S_HDMV/PGS
Codec ID/Info                            : Picture based subtitle format used on BDs/HD-DVDs
Title                                    : Korean-PGS
Language                                 : Korean
Default                                  : No
Forced                                   : No


Text #9
ID                                       : 22
Format                                   : PGS
Muxing mode                              : zlib
Codec ID                                 : S_HDMV/PGS
Codec ID/Info                            : Picture based subtitle format used on BDs/HD-DVDs
Title                                    : Danish-PGS
Language                                 : Danish
Default                                  : No
Forced                                   : No


Text #10
ID                                       : 23
Format                                   : PGS
Muxing mode                              : zlib
Codec ID                                 : S_HDMV/PGS
Codec ID/Info                            : Picture based subtitle format used on BDs/HD-DVDs
Title                                    : Estonian-PGS
Language                                 : Estonian
Default                                  : No
Forced                                   : No


Text #11
ID                                       : 24
Format                                   : PGS
Muxing mode                              : zlib
Codec ID                                 : S_HDMV/PGS
Codec ID/Info                            : Picture based subtitle format used on BDs/HD-DVDs
Title                                    : Finnish-PGS
Language                                 : Finnish
Default                                  : No
Forced                                   : No


Text #12
ID                                       : 25
Format                                   : PGS
Muxing mode                              : zlib
Codec ID                                 : S_HDMV/PGS
Codec ID/Info                            : Picture based subtitle format used on BDs/HD-DVDs
Title                                    : Greek-PGS
Language                                 : Greek
Default                                  : No
Forced                                   : No


Text #13
ID                                       : 26
Format                                   : PGS
Muxing mode                              : zlib
Codec ID                                 : S_HDMV/PGS
Codec ID/Info                            : Picture based subtitle format used on BDs/HD-DVDs
Title                                    : Icelandic-PGS
Language                                 : Icelandic
Default                                  : No
Forced                                   : No


Text #14
ID                                       : 27
Format                                   : PGS
Muxing mode                              : zlib
Codec ID                                 : S_HDMV/PGS
Codec ID/Info                            : Picture based subtitle format used on BDs/HD-DVDs
Title                                    : Latvian-PGS
Language                                 : Latvian
Default                                  : No
Forced                                   : No


Text #15
ID                                       : 28
Format                                   : PGS
Muxing mode                              : zlib
Codec ID                                 : S_HDMV/PGS
Codec ID/Info                            : Picture based subtitle format used on BDs/HD-DVDs
Title                                    : Lithuanian-PGS
Language                                 : Lithuanian
Default                                  : No
Forced                                   : No


Text #16
ID                                       : 29
Format                                   : PGS
Muxing mode                              : zlib
Codec ID                                 : S_HDMV/PGS
Codec ID/Info                            : Picture based subtitle format used on BDs/HD-DVDs
Title                                    : Norwegian-PGS
Language                                 : Norwegian
Default                                  : No
Forced                                   : No


Text #17
ID                                       : 30
Format                                   : PGS
Muxing mode                              : zlib
Codec ID                                 : S_HDMV/PGS
Codec ID/Info                            : Picture based subtitle format used on BDs/HD-DVDs
Title                                    : Polish-PGS
Language                                 : Polish
Default                                  : No
Forced                                   : No


Text #18
ID                                       : 31
Format                                   : PGS
Muxing mode                              : zlib
Codec ID                                 : S_HDMV/PGS
Codec ID/Info                            : Picture based subtitle format used on BDs/HD-DVDs
Title                                    : Russian-PGS
Language                                 : Russian
Default                                  : No
Forced                                   : No


Text #19
<p>ID                                     &n

举报

回复
您需要登录后才可以回帖 登录 | 立即注册  

本版积分规则

高清剧集推荐

更多

高清MV/综艺

更多

客服中心

400-800-8888 周一至周日 8:30-20:30 仅收市话费

关注我们

  • 手机客户端
  • 关注官方微信
关闭

站长推荐上一条 /1 下一条

关于我们
关于我们
友情链接
联系我们
帮助中心
网友中心
购买须知
支付方式
服务支持
资源下载
售后服务
定制流程
关注我们
官方微博
官方空间
官方微信
快速回复 返回顶部 返回列表