开启左侧

[BT下载]亚瑟王:斗兽争[3D上下]2017.1080p.3D.BluRay.Half-OU.x264.DTS-HD.MA.7.1-FGT 26G

[复制链接]
79 0

马上注册,结交更多高清迷友,分享更多资源,让你轻松玩转社区。

您需要 登录 才可以下载或查看,没有帐号?立即注册  

x
-->

◎译  名 亚瑟王:斗兽争霸/亚瑟王:圣剑传奇/亚瑟:王者之剑(台)/神剑亚瑟王(港)/亚瑟王:圆桌骑士/亚瑟王:剑之传奇/亚瑟王:石中剑传说/新亚瑟王/圆桌骑士
◎片  名 King Arthur: Legend of the Sword
◎年  代 2017
◎产  地 美国
◎类  别 动作/奇幻/冒险
◎语  言 英语
◎上映日期 2017-05-12(中国大陆)/2017-05-12(美国)
◎IMDb评分  7.2/10 from 60,654 users
◎IMDb链接  http://www.imdb.com/title/tt1972591/
◎豆瓣评分 7.3/10 from 24,862 users
◎豆瓣链接 https://movie.douban.com/subject/25864124/
◎高清迷整理 http://www.hdmee.com http://www.btbtt.pw  
◎片  长 126分钟
◎导  演 盖·里奇 Guy Ritchie
◎主  演 查理·汉纳姆 Charlie Hunnam
      裘德·洛 Jude Law
      阿斯特丽德·伯格斯-弗瑞斯贝 strid Bergès-Frisbey
      米卡埃尔·佩斯布兰特 Mikael Persbrandt
      杰曼·翰苏 Djimon Hounsou
      安娜贝拉·沃丽丝 Annabelle Wallis
      艾瑞克·巴纳 Eric Bana
      艾丹·吉伦 Aidan Gillen
      尼尔·马斯克尔 Neil Maskell
      赫敏·科菲尔德 Hermione Corfield
      凯蒂·麦克格拉思 Katie McGrath
      杰奎·安斯蕾 Jacqui Ainsley
      弗莱迪·福克斯 Freddie Fox
      波比·迪瓦伊 Poppy Delevingne
      朱利安·西格尔 Julian Seager
      大卫·贝克汉姆 David Beckham
      杰夫·贝尔 Geoff Bell
      米莉·布拉迪 Millie Brady
      乔治娜·坎贝尔 Georgina Campbell
      丹尼尔·斯蒂森 Daniel Stisen
      伊琳·珀威尔 Eline Powell
      迈克尔·麦克埃尔哈顿 Michael McElhatton
      阿德里安·布薛特 Adrian Bouchet
      彼得·费迪南多 Peter Ferdinando
      汤姆·吴 Tom Wu
      金斯利·本-阿德 Kingsley Ben-Adir
      盖·里奇 Guy Ritchie


◎简  介


  本片改编自亚瑟王圣剑的传说,剧情颠覆传统,一路探索亚瑟从市井到王座的征途。亚瑟的父亲在他小时候就惨遭杀害,亚瑟的叔叔伏提庚(裘德·洛 Jude Law 饰)篡取王位,剥夺了亚瑟(查理·汉纳姆 Charlie Hunnam 饰)的天赐之权。他浑然不知自己的身世,在城市的穷街陋巷里摸爬滚打着长大,但当他拔出石中剑,他的人生就彻底地天翻地覆了,亚瑟不得不接受自己真正的使命。


Video
ID                                       : 1
Format                                   : AVC
Format/Info                              : Advanced Video Codec
Format profile                           : [email protected]
Format settings, CABAC                   : Yes
Format settings, ReFrames                : 1 frame
Format settings, GOP                     : M=1, N=24
Codec ID                                 : V_MPEG4/ISO/AVC
Duration                                 : 2 h 6 min
Bit rate mode                            : Constant
Nominal bit rate                         : 16.0 Mb/s
Width                                    : 1 920 pixels
Height                                   : 1 080 pixels
Display aspect ratio                     : 16:9
Frame rate mode                          : Constant
Frame rate                               : 23.976 (24000/1001) FPS
Color space                              : YUV
Chroma subsampling                       : 4:2:0
Bit depth                                : 8 bits
Scan type                                : Progressive
Bits/(Pixel*Frame)                       : 0.322
Title                                    : King.Arthur.Legend.of.the.Sword.2017.1080p.3D.BluRay.Half-OU.x264.DTS-HD.MA.7.1-FGT
Default                                  : Yes
Forced                                   : No
Color range                              : Limited
Color primaries                          : BT.709
Transfer characteristics                 : BT.709
Matrix coefficients                      : BT.709


Audio #1
ID                                       : 2
Format                                   : DTS
Format/Info                              : Digital Theater Systems
Format profile                           : MA / Core
Mode                                     : 16
Format settings, Endianness              : Big
Codec ID                                 : A_DTS
Duration                                 : 2 h 6 min
Bit rate mode                            : Variable / Constant
Bit rate                                 : Unknown / 1 509 kb/s
Channel(s)                               : 8 channels / 6 channels
Channel positions                        : Front: L C R, Side: L R, Back: L R, LFE / Front: L C R, Side: L R, LFE
Sampling rate                            : 48.0 kHz
Frame rate                               : 93.750 FPS (512 spf)
Bit depth                                : 24 bits
Compression mode                         : Lossless / Lossy
Title                                    : King.Arthur.Legend.of.the.Sword.2017.1080p.3D.BluRay.Half-OU.x264.DTS-HD.MA.7.1-FGT
Language                                 : English
Default                                  : Yes
Forced                                   : No


Audio #2
ID                                       : 3
Format                                   : DTS
Format/Info                              : Digital Theater Systems
Format profile                           : MA / Core
Mode                                     : 16
Format settings, Endianness              : Big
Codec ID                                 : A_DTS
Duration                                 : 2 h 6 min
Bit rate mode                            : Variable / Constant
Bit rate                                 : Unknown / 1 509 kb/s
Channel(s)                               : 6 channels
Channel positions                        : Front: L C R, Side: L R, LFE
Sampling rate                            : 48.0 kHz
Frame rate                               : 93.750 FPS (512 spf)
Bit depth                                : 16 bits
Compression mode                         : Lossless / Lossy
Title                                    : King.Arthur.Legend.of.the.Sword.2017.1080p.3D.BluRay.Half-OU.x264.DTS-HD.MA.7.1-FGT
Language                                 : English
Default                                  : No
Forced                                   : No


Audio #3
ID                                       : 4
Format                                   : DTS
Format/Info                              : Digital Theater Systems
Mode                                     : 16
Format settings, Endianness              : Big
Codec ID                                 : A_DTS
Duration                                 : 2 h 6 min
Bit rate mode                            : Constant
Bit rate                                 : 1 509 kb/s
Channel(s)                               : 6 channels
Channel positions                        : Front: L C R, Side: L R, LFE
Sampling rate                            : 48.0 kHz
Frame rate                               : 93.750 FPS (512 spf)
Bit depth                                : 16 bits
Compression mode                         : Lossy
Stream size                              : 1.33 GiB (5%)
Title                                    : King.Arthur.Legend.of.the.Sword.2017.1080p.3D.BluRay.Half-OU.x264.DTS-HD.MA.7.1-FGT
Language                                 : English
Default                                  : No
Forced                                   : No


Audio #4
ID                                       : 5
Format                                   : AC-3
Format/Info                              : Audio Coding 3
Format settings, Endianness              : Big
Codec ID                                 : A_AC3
Duration                                 : 2 h 6 min
Bit rate mode                            : Constant
Bit rate                                 : 448 kb/s
Channel(s)                               : 6 channels
Channel positions                        : Front: L C R, Side: L R, LFE
Sampling rate                            : 48.0 kHz
Frame rate                               : 31.250 FPS (1536 spf)
Bit depth                                : 16 bits
Compression mode                         : Lossy
Stream size                              : 404 MiB (1%)
Title                                    : King.Arthur.Legend.of.the.Sword.2017.1080p.3D.BluRay.Half-OU.x264.DTS-HD.MA.7.1-FGT
Language                                 : English
Service kind                             : Complete Main
Default                                  : No
Forced                                   : No


Audio #5
ID                                       : 6
Format                                   : AC-3
Format/Info                              : Audio Coding 3
Format settings, Endianness              : Big
Codec ID                                 : A_AC3
Duration                                 : 2 h 6 min
Bit rate mode                            : Constant
Bit rate                                 : 448 kb/s
Channel(s)                               : 6 channels
Channel positions                        : Front: L C R, Side: L R, LFE
Sampling rate                            : 48.0 kHz
Frame rate                               : 31.250 FPS (1536 spf)
Bit depth                                : 16 bits
Compression mode                         : Lossy
Stream size                              : 404 MiB (1%)
Title                                    : King.Arthur.Legend.of.the.Sword.2017.1080p.3D.BluRay.Half-OU.x264.DTS-HD.MA.7.1-FGT
Language                                 : French
Service kind                             : Complete Main
Default                                  : No
Forced                                   : No


Audio #6
ID                                       : 7
Format                                   : DTS
Format/Info                              : Digital Theater Systems
Format profile                           : MA / Core
Mode                                     : 16
Format settings, Endianness              : Big
Codec ID                                 : A_DTS
Duration                                 : 2 h 6 min
Bit rate mode                            : Variable / Constant
Bit rate                                 : Unknown / 1 509 kb/s
Channel(s)                               : 6 channels
Channel positions                        : Front: L C R, Side: L R, LFE
Sampling rate                            : 48.0 kHz
Frame rate                               : 93.750 FPS (512 spf)
Bit depth                                : 16 bits
Compression mode                         : Lossless / Lossy
Title                                    : King.Arthur.Legend.of.the.Sword.2017.1080p.3D.BluRay.Half-OU.x264.DTS-HD.MA.7.1-FGT
Language                                 : German
Default                                  : No
Forced                                   : No


Audio #7
ID                                       : 8
Format                                   : DTS
Format/Info                              : Digital Theater Systems
Mode                                     : 16
Format settings, Endianness              : Big
Codec ID                                 : A_DTS
Duration                                 : 2 h 6 min
Bit rate mode                            : Constant
Bit rate                                 : 1 509 kb/s
Channel(s)                               : 6 channels
Channel positions                        : Front: L C R, Side: L R, LFE
Sampling rate                            : 48.0 kHz
Frame rate                               : 93.750 FPS (512 spf)
Bit depth                                : 16 bits
Compression mode                         : Lossy
Stream size                              : 1.33 GiB (5%)
Title                                    : King.Arthur.Legend.of.the.Sword.2017.1080p.3D.BluRay.Half-OU.x264.DTS-HD.MA.7.1-FGT
Language                                 : German
Default                                  : No
Forced                                   : No


Audio #8
ID                                       : 9
Format                                   : AC-3
Format/Info                              : Audio Coding 3
Format settings, Endianness              : Big
Codec ID                                 : A_AC3
Duration                                 : 2 h 6 min
Bit rate mode                            : Constant
Bit rate                                 : 448 kb/s
Channel(s)                               : 6 channels
Channel positions                        : Front: L C R, Side: L R, LFE
Sampling rate                            : 48.0 kHz
Frame rate                               : 31.250 FPS (1536 spf)
Bit depth                                : 16 bits
Compression mode                         : Lossy
Stream size                              : 404 MiB (1%)
Title                                    : King.Arthur.Legend.of.the.Sword.2017.1080p.3D.BluRay.Half-OU.x264.DTS-HD.MA.7.1-FGT
Language                                 : Italian
Service kind                             : Complete Main
Default                                  : No
Forced                                   : No


Audio #9
ID                                       : 10
Format                                   : AC-3
Format/Info                              : Audio Coding 3
Format settings, Endianness              : Big
Codec ID                                 : A_AC3
Duration                                 : 2 h 6 min
Bit rate mode                            : Constant
Bit rate                                 : 448 kb/s
Channel(s)                               : 6 channels
Channel positions                        : Front: L C R, Side: L R, LFE
Sampling rate                            : 48.0 kHz
Frame rate                               : 31.250 FPS (1536 spf)
Bit depth                                : 16 bits
Compression mode                         : Lossy
Stream size                              : 404 MiB (1%)
Title                                    : King.Arthur.Legend.of.the.Sword.2017.1080p.3D.BluRay.Half-OU.x264.DTS-HD.MA.7.1-FGT
Language                                 : Spanish
Service kind                             : Complete Main
Default                                  : No
Forced                                   : No


Audio #10
ID                                       : 11
Format                                   : AC-3
Format/Info                              : Audio Coding 3
Format settings, Endianness              : Big
Codec ID                                 : A_AC3
Duration                                 : 2 h 6 min
Bit rate mode                            : Constant
Bit rate                                 : 448 kb/s
Channel(s)                               : 6 channels
Channel positions                        : Front: L C R, Side: L R, LFE
Sampling rate                            : 48.0 kHz
Frame rate                               : 31.250 FPS (1536 spf)
Bit depth                                : 16 bits
Compression mode                         : Lossy
Stream size                              : 404 MiB (1%)
Title                                    : King.Arthur.Legend.of.the.Sword.2017.1080p.3D.BluRay.Half-OU.x264.DTS-HD.MA.7.1-FGT
Language                                 : Portuguese
Service kind                             : Complete Main
Default                                  : No
Forced                                   : No


Audio #11
ID                                       : 12
Format                                   : AC-3
Format/Info                              : Audio Coding 3
Format settings, Endianness              : Big
Codec ID                                 : A_AC3
Duration                                 : 2 h 6 min
Bit rate mode                            : Constant
Bit rate                                 : 448 kb/s
Channel(s)                               : 6 channels
Channel positions                        : Front: L C R, Side: L R, LFE
Sampling rate                            : 48.0 kHz
Frame rate                               : 31.250 FPS (1536 spf)
Bit depth                                : 16 bits
Compression mode                         : Lossy
Stream size                              : 404 MiB (1%)
Title                                    : King.Arthur.Legend.of.the.Sword.2017.1080p.3D.BluRay.Half-OU.x264.DTS-HD.MA.7.1-FGT
Language                                 : Czech
Service kind                             : Complete Main
Default                                  : No
Forced                                   : No


Audio #12
ID                                       : 13
Format                                   : AC-3
Format/Info                              : Audio Coding 3
Format settings, Endianness              : Big
Codec ID                                 : A_AC3
Duration                                 : 2 h 6 min
Bit rate mode                            : Constant
Bit rate                                 : 448 kb/s
Channel(s)                               : 6 channels
Channel positions                        : Front: L C R, Side: L R, LFE
Sampling rate                            : 48.0 kHz
Frame rate                               : 31.250 FPS (1536 spf)
Bit depth                                : 16 bits
Compression mode                         : Lossy
Stream size                              : 404 MiB (1%)
Title                                    : King.Arthur.Legend.of.the.Sword.2017.1080p.3D.BluRay.Half-OU.x264.DTS-HD.MA.7.1-FGT
Language                                 : Hungarian
Service kind                             : Complete Main
Default                                  : No
Forced                                   : No


Audio #13
ID                                       : 14
Format                                   : AC-3
Format/Info                              : Audio Coding 3
Format settings, Endianness              : Big
Codec ID                                 : A_AC3
Duration                                 : 2 h 6 min
Bit rate mode                            : Constant
Bit rate                                 : 448 kb/s
Channel(s)                               : 6 channels
Channel positions                        : Front: L C R, Side: L R, LFE
Sampling rate                            : 48.0 kHz
Frame rate                               : 31.250 FPS (1536 spf)
Bit depth                                : 16 bits
Compression mode                         : Lossy
Stream size                              : 404 MiB (1%)
Title                                    : King.Arthur.Legend.of.the.Sword.2017.1080p.3D.BluRay.Half-OU.x264.DTS-HD.MA.7.1-FGT
Language                                 : Turkish
Service kind                             : Complete Main
Default                                  : No
Forced                                   : No


Text #1
ID                                       : 15
Format                                   : PGS
Muxing mode                              : zlib
Codec ID                                 : S_HDMV/PGS
Codec ID/Info                            : Picture based subtitle format used on BDs/HD-DVDs
Title                                    : English-PGS
Language                                 : English
Default                                  : Yes
Forced                                   : No


Text #2
ID                                       : 16
Format                                   : PGS
Muxing mode                              : zlib
Codec ID                                 : S_HDMV/PGS
Codec ID/Info                            : Picture based subtitle format used on BDs/HD-DVDs
Title                                    : French-PGS
Language                                 : French
Default                                  : No
Forced                                   : No


Text #3
ID                                       : 17
Format                                   : PGS
Muxing mode                              : zlib
Codec ID                                 : S_HDMV/PGS
Codec ID/Info                            : Picture based subtitle format used on BDs/HD-DVDs
Title                                    : German-PGS
Language                                 : German
Default                                  : No
Forced                                   : No


Text #4
ID                                       : 18
Format                                   : PGS
Muxing mode                              : zlib
Codec ID                                 : S_HDMV/PGS
Codec ID/Info                            : Picture based subtitle format used on BDs/HD-DVDs
Title                                    : Italain-PGS
Language                                 : Italian
Default                                  : No
Forced                                   : No


Text #5
ID                                       : 19
Format                                   : PGS
Muxing mode                              : zlib
Codec ID                                 : S_HDMV/PGS
Codec ID/Info                            : Picture based subtitle format used on BDs/HD-DVDs
Title                                    : Spanish-PGS
Language                                 : Spanish
Default                                  : No
Forced                                   : No


Text #6
ID                                       : 20
Format                                   : PGS
Muxing mode                              : zlib
Codec ID                                 : S_HDMV/PGS
Codec ID/Info                            : Picture based subtitle format used on BDs/HD-DVDs
Title                                    : Portuguese-PGS
Language                                 : Portuguese
Default                                  : No
Forced                                   : No


Text #7
ID                                       : 21
Format                                   : PGS
Muxing mode                              : zlib
Codec ID                                 : S_HDMV/PGS
Codec ID/Info                            : Picture based subtitle format used on BDs/HD-DVDs
Title                                    : Arabic-PGS
Language                                 : Arabic
Default                                  : No
Forced                                   : No


Text #8
ID                                       : 22
Format                                   : PGS
Muxing mode                              : zlib
Codec ID                                 : S_HDMV/PGS
Codec ID/Info                            : Picture based subtitle format used on BDs/HD-DVDs
Title                                    : Bulgarian-PGS
Language                                 : Bulgarian
Default                                  : No
Forced                                   : No


Text #9
ID                                       : 23
Format                                   : PGS
Muxing mode                              : zlib
Codec ID                                 : S_HDMV/PGS
Codec ID/Info                            : Picture based subtitle format used on BDs/HD-DVDs
Title                                    : Croatian-PGS
Language                                 : Croatian
Default                                  : No
Forced                                   : No


Text #10
ID                                       : 24
Format                                   : PGS
Muxing mode                              : zlib
Codec ID                                 : S_HDMV/PGS
Codec ID/Info                            : Picture based subtitle format used on BDs/HD-DVDs
Title                                    : Czech-PGS
Language                                 : Czech
Default                                  : No
Forced                                   : No


Text #11
ID                                       : 25
Format                                   : PGS
Muxing mode                              : zlib
Codec ID                                 : S_HDMV/PGS
Codec ID/Info                            : Picture based subtitle format used on BDs/HD-DVDs
Title                                    : Hebrew-PGS
Language                                 : Hebrew
Default                                  : No
Forced                                   : No


Text #12
ID                                       : 26
Format                                   : PGS
Muxing mode                              : zlib
Codec ID                                 : S_HDMV/PGS
Codec ID/Info                            : Picture based subtitle format used on BDs/HD-DVDs
Title                                    : Hungarian-PGS
Language                                 : Hungarian
Default                                  : No
Forced                                   : No


Text #13
ID                                       : 27
Format                                   : PGS
Muxing mode                              : zlib
Codec ID                                 : S_HDMV/PGS
Codec ID/Info                            : Picture based subtitle format used on BDs/HD-DVDs
Title                                    : Portuguese-pgs
Language                                 : Portuguese
Default                                  : No
Forced                                   : No


Text #14
ID                                       : 28
Format                                   : PGS
Muxing mode                              : zlib
Codec ID                                 : S_HDMV/PGS
Codec ID/Info                            : Picture based subtitle format used on BDs/HD-DVDs
Title                                    : Romanian-PGS
Language                                 : Romanian
Default                                  : No
Forced                                   : No


Text #15
ID                                       : 29
Format                                   : PGS
Muxing mode                              : zlib
Codec ID                                 : S_HDMV/PGS
Codec ID/Info                            : Picture based subtitle format used on BDs/HD-DVDs
Title                                    : Slovenian-PGS
Language                                 : Slovenian
<p>Default               &n

举报

回复
您需要登录后才可以回帖 登录 | 立即注册  

本版积分规则

高清剧集推荐

更多

高清MV/综艺

更多

客服中心

400-800-8888 周一至周日 8:30-20:30 仅收市话费

关注我们

  • 手机客户端
  • 关注官方微信
关闭

站长推荐上一条 /1 下一条

关于我们
关于我们
友情链接
联系我们
帮助中心
网友中心
购买须知
支付方式
服务支持
资源下载
售后服务
定制流程
关注我们
官方微博
官方空间
官方微信
快速回复 返回顶部 返回列表