开启左侧

[BT下载]惊天骇地 3000.Miles.to.Graceland.2001.720p.HDTV.x264-aAF 3.28G

[复制链接]
170 2
-->
◎译  名 惊天骇地/距格雷斯兰3000里/猫王复活/暴劫双雄
◎片  名 3000 Miles to Graceland
◎年  代 2001
◎产  地 美国
◎类  别 动作/喜剧/犯罪/惊悚
◎语  言 英语
◎上映日期 2001-02-20
◎IMDb评分  5.9/10 from 39,304 users
◎IMDb链接  http://www.imdb.com/title/tt0233142/
◎豆瓣评分 6.7/10 from 218 users
◎豆瓣链接 https://movie.douban.com/subject/1302341/
◎片  长 125 分钟
◎导  演 Demian Lichtenstein
◎主  演 凯文·科斯特纳 Kevin Costner
      库尔特·拉塞尔 Kurt Russell
      柯特妮·考克斯 Courteney Cox
      克里斯蒂安·史莱特 Christian Slater
      凯文·波拉克 Kevin Pollak


◎简  介


  莫菲(凯文·科斯特纳)、迈克尔(库尔特·拉塞尔)、格斯(大卫·阿奎特)等五人来到拉斯维加斯,里维埃拉饭店赌场里,这里正在举行一场盛大的“猫王模仿大赛”,上千个身穿紧身舞衣,留着大鬓角的模仿者云集在这里,气氛显得热烈又嘈杂。但是他们可不是为了什么模仿大赛,而是想趁此机会洗劫这里的赌场,大捞一票。眼下,他们也都化装成猫王混迹于人群之中,只不过,在他们的吉他箱里,装的都是各式各样的犀利武器和爆破工具。
  莫菲的精心策划没有白费,抢劫顺利的难以置信,五个人带着320万美金从饭店顶层天台乘直升机从容逃脱。但是正当其他几个人迫不及待地幻想着如何享用这笔不义之财的时候,莫菲却早就在盘算如何能独吞这笔巨款,心狠手辣的莫菲决定对四个同伙下黑手。但他没想到的是,曾经和他一起坐了数年大牢的的迈克尔竟穿着避弹衣,侥幸逃过了一死。迈可尔凭他对莫菲多年交往自信对莫菲的一举一动都了如指掌,于是,他带着曾和他做过一夜夫妻的单身母亲赛波(科特妮·考克斯)以及她那个有盗窃癖的儿子杰西,分秒必争地上了路,他必须要赶在莫菲之前拿到赃款。
  意外的是,自以为能独吞赃款的莫菲在路上出了车祸,贻误了“战机”,当他回到存放赃款的旅店的时候,发现赃款已不翼而飞,这才得知迈克尔不但没死,还抢在他之前把钱拿走了。气炸了肺的莫菲马上动身去追迈克尔,而拿到的钱的迈克尔也不好过,一边要担心莫菲会找到他,一边还要提防着赛波,因为她也正对这笔钱不怀好意,毕竟一夜的感情比起320万美金的诱惑来说则显得逊色太多。
  事情极具戏剧性的发展越来越像一场螳螂捕蝉黄雀在后的阴谋游戏,那么,是谁笑到了最后呢?大家拭目以待。



Video
ID                                       : 1
Format                                   : AVC
Format/Info                              : Advanced Video Codec
Format profile                           : [email protected]
Format settings, CABAC                   : Yes
Format settings, ReFrames                : 5 frames
Codec ID                                 : V_MPEG4/ISO/AVC
Duration                                 : 2 h 4 min
Bit rate                                 : 3 301 kb/s
Width                                    : 1 280 pixels
Height                                   : 542 pixels
Display aspect ratio                     : 2.35:1
Frame rate mode                          : Constant
Frame rate                               : 23.976 (24000/1001) FPS
Color space                              : YUV
Chroma subsampling                       : 4:2:0
Bit depth                                : 8 bits
Scan type                                : Progressive
Bits/(Pixel*Frame)                       : 0.198
Stream size                              : 2.88 GiB (88%)
Writing library                          : x264 core 152 r2851 ba24899
Encoding settings                        : cabac=1 / ref=5 / deblock=1:0:0 / analyse=0x3:0x113 / me=hex / subme=8 / psy=1 / psy_rd=1.00:0.00 / mixed_ref=1 / me_range=16 / chroma_me=1 / trellis=2 / 8x8dct=1 / cqm=0 / deadzone=21,11 / fast_pskip=1 / chroma_qp_offset=-2 / threads=17 / lookahead_threads=2 / sliced_threads=0 / nr=0 / decimate=1 / interlaced=0 / bluray_compat=0 / constrained_intra=0 / bframes=3 / b_pyramid=2 / b_adapt=1 / b_bias=0 / direct=3 / weightb=1 / open_gop=0 / weightp=2 / keyint=250 / keyint_min=23 / scenecut=40 / intra_refresh=0 / rc_lookahead=50 / rc=crf / mbtree=1 / crf=18.0 / qcomp=0.60 / qpmin=0 / qpmax=69 / qpstep=4 / ip_ratio=1.40 / aq=1:1.00
Default                                  : Yes
Forced                                   : No
Color range                              : Limited
Matrix coefficients                      : BT.709

Audio
ID                                       : 2
Format                                   : AC-3
Format/Info                              : Audio Coding 3
Format settings, Endianness              : Big
Codec ID                                 : A_AC3
Duration                                 : 2 h 4 min
Bit rate mode                            : Constant
Bit rate                                 : 384 kb/s
Channel(s)                               : 6 channels
Channel positions                        : Front: L C R, Side: L R, LFE
Sampling rate                            : 48.0 kHz
Frame rate                               : 31.250 FPS (1536 spf)
Bit depth                                : 16 bits
Compression mode                         : Lossy
Stream size                              : 343 MiB (10%)
Service kind                             : Complete Main
Default                                  : Yes
Forced                                   : No





[table=98%][/table]

本帖子中包含更多资源

您需要 登录 才可以下载或查看,没有帐号?立即注册  

x

举报

回复

2 个评论

sunny5618  4K  发表于 2017-12-15 08:02:44  | 显示全部楼层
一个时代的美国佬形象
frankman  原盘  发表于 2017-12-28 00:33:05  | 显示全部楼层
~~非常感謝大大的分享~~
您需要登录后才可以回帖 登录 | 立即注册  

本版积分规则

高清剧集推荐

更多

高清MV/综艺

更多

客服中心

400-800-8888 周一至周日 8:30-20:30 仅收市话费

关注我们

  • 手机客户端
  • 关注官方微信
关闭

站长推荐上一条 /1 下一条

关于我们
关于我们
友情链接
联系我们
帮助中心
网友中心
购买须知
支付方式
服务支持
资源下载
售后服务
定制流程
关注我们
官方微博
官方空间
官方微信
快速回复 返回顶部 返回列表