开启左侧

[密战].Eternal.Wave.WEB-DL.2017.4k.1080p.x264.AAC-HQC[6.3G]

[复制链接]
538 26
[密战].Eternal.Wave.WEB-DL.2017.4k.1080p.x264.AAC-HQC  6.3G



◎译  名 新永不消逝的电波
◎片  名 密战
◎年  代 2017
◎产  地 中国大陆
◎类  别 剧情/动作/战争
◎语  言 汉语普通话/英语
◎上映日期 2017-11-03(中国大陆)
◎豆瓣评分 4.6/10 from 9,978 users
◎豆瓣链接 https://movie.douban.com/subject/26316956/
◎片  长 102分钟
◎导  演 钟少雄 Siu-hung Chung
◎主  演 郭富城 Aaron Kwok
      赵丽颖 Liying Zhao
      张翰 Han Zhang
      任达华 Simon Yam
      张蓝心 Lanxin Zhang
      朱一龙 Yilong Zhu
      于晓光 Xiaoguang Yu
      刘玥心 Yuexin Liu
      奚美娟 Meijuan Xi
      寇振海 Zhenhai Kou
      由立平 Liping You
      安亚平 Yaping An
      孙耀威 Eric Suen
      曹操 Jonathan Kos-Read
      李滨 Bin Li
      涂黎曼 Liman Tu
      艾如 Ru Ai

◎简  介

  淞沪会战后上海沦陷,地下工作者林翔(郭富城 饰)受命来到危机四伏的上海,重建惨遭敌人破坏的地下抗日战线。在这里他遇到单纯却很有正义感的兰芳(赵丽颖 饰),这对临时组成的“地下党夫妇”将在战火纷飞中,携手与日本侵略者及伪政府特务展开惊险刺激的生死较量……

  1. General

  2. Format                         : MPEG-4

  3. Format profile                 : Base Media

  4. Codec ID                       : isom (isom/iso2/avc1/mp41)

  5. File size                      : 4.48 GiB

  6. Duration                       : 1 h 42 min

  7. Overall bit rate               : 6 284 kb/s

  8. Writing application            : Lavf57.41.100



  9. Video

  10. ID                             : 1

  11. Format                         : AVC

  12. Format/Info                    : Advanced Video Codec

  13. Format profile                 : High@L5.1

  14. Format settings                : CABAC / 3 Ref Frames

  15. Format settings, CABAC         : Yes

  16. Format settings, ReFrames      : 3 frames

  17. Codec ID                       : avc1

  18. Codec ID/Info                  : Advanced Video Coding

  19. Duration                       : 1 h 42 min

  20. Bit rate                       : 6 214 kb/s

  21. Width                          : 3 840 pixels

  22. Height                         : 1 608 pixels

  23. Display aspect ratio           : 2.40:1

  24. Frame rate mode                : Variable

  25. Frame rate                     : 24.000 FPS

  26. Minimum frame rate             : 23.810 FPS

  27. Maximum frame rate             : 24.390 FPS

  28. Color space                    : YUV

  29. Chroma subsampling             : 4:2:0

  30. Bit depth                      : 8 bits

  31. Scan type                      : Progressive

  32. Bits/(Pixel*Frame)             : 0.042

  33. Stream size                    : 4.43 GiB (99%)

  34. Writing library                : qiyi.com vtc-test

  35. Color range                    : Limited

  36. Color primaries                : BT.709

  37. Transfer characteristics       : BT.709

  38. Matrix coefficients            : BT.709



  39. Audio

  40. ID                             : 2

  41. Format                         : AAC

  42. Format/Info                    : Advanced Audio Codec

  43. Format profile                 : HE-AAC / LC

  44. Format settings                : Explicit

  45. Codec ID                       : mp4a-40-2

  46. Duration                       : 1 h 42 min

  47. Bit rate mode                  : Constant

  48. Bit rate                       : 62.8 kb/s

  49. Channel(s)                     : 2 channels

  50. Channel positions              : Front: L R

  51. Sampling rate                  : 44.1 kHz / 22.05 kHz

  52. Frame rate                     : 21.533 FPS (1024 SPF)

  53. Compression mode               : Lossy

  54. Stream size                    : 45.9 MiB (1%)

  55. Default                        : Yes

  56. Alternate group                : 1
复制代码

  1. General

  2. Format                         : MPEG-4

  3. Format profile                 : Base Media

  4. Codec ID                       : isom (isom/iso2/avc1/mp41)

  5. File size                      : 1.82 GiB

  6. Duration                       : 1 h 42 min

  7. Overall bit rate               : 2 549 kb/s

  8. Writing application            : Lavf57.41.100



  9. Video

  10. ID                             : 1

  11. Format                         : AVC

  12. Format/Info                    : Advanced Video Codec

  13. Format profile                 : High@L4

  14. Format settings                : CABAC / 3 Ref Frames

  15. Format settings, CABAC         : Yes

  16. Format settings, ReFrames      : 3 frames

  17. Codec ID                       : avc1

  18. Codec ID/Info                  : Advanced Video Coding

  19. Duration                       : 1 h 42 min

  20. Bit rate                       : 2 480 kb/s

  21. Width                          : 1 920 pixels

  22. Height                         : 800 pixels

  23. Display aspect ratio           : 2.40:1

  24. Frame rate mode                : Variable

  25. Frame rate                     : 24.000 FPS

  26. Minimum frame rate             : 23.810 FPS

  27. Maximum frame rate             : 24.390 FPS

  28. Color space                    : YUV

  29. Chroma subsampling             : 4:2:0

  30. Bit depth                      : 8 bits

  31. Scan type                      : Progressive

  32. Bits/(Pixel*Frame)             : 0.067

  33. Stream size                    : 1.77 GiB (97%)

  34. Writing library                : qiyi.com vtc-test

  35. Color range                    : Limited

  36. Color primaries                : BT.709

  37. Transfer characteristics       : BT.709

  38. Matrix coefficients            : BT.709



  39. Audio

  40. ID                             : 2

  41. Format                         : AAC

  42. Format/Info                    : Advanced Audio Codec

  43. Format profile                 : HE-AAC / LC

  44. Format settings                : Explicit

  45. Codec ID                       : mp4a-40-2

  46. Duration                       : 1 h 42 min

  47. Bit rate mode                  : Constant

  48. Bit rate                       : 62.8 kb/s

  49. Channel(s)                     : 2 channels

  50. Channel positions              : Front: L R

  51. Sampling rate                  : 44.1 kHz / 22.05 kHz

  52. Frame rate                     : 21.533 FPS (1024 SPF)

  53. Compression mode               : Lossy

  54. Stream size                    : 45.9 MiB (2%)

  55. Default                        : Yes

  56. Alternate group                : 1
复制代码
















BT种子
游客,如果您要查看本帖隐藏内容请回复

本帖子中包含更多资源

您需要 登录 才可以下载或查看,没有帐号?立即注册  

x

举报

回复

26 个评论

您需要登录后才可以回帖 登录 | 立即注册  

本版积分规则

VIP会员招募,免广告,免回复,免收费下载
搜索

高清剧集推荐

更多

高清MV/综艺

更多

客服中心

400-800-8888 周一至周日 8:30-20:30 仅收市话费

关注我们

  • 手机客户端
  • 关注官方微信
关闭

站长推荐上一条 /1 下一条

关于我们
关于我们
友情链接
联系我们
帮助中心
网友中心
购买须知
支付方式
服务支持
资源下载
售后服务
定制流程
关注我们
官方微博
官方空间
官方微信
快速回复 返回顶部 返回列表