开启左侧

[天生不对].Perfect.Couple.2017.WEB-DL.4k.1080p.x264.AAC-HQC[6.21G]

[复制链接]
549 12
[天生不对].Perfect.Couple.2017.WEB-DL.4k.1080p.x264.AAC-HQC  6.21G



◎译  名 PerfectCouple
◎片  名 天生不对
◎年  代 2017
◎产  地 中国大陆
◎类  别 喜剧/爱情
◎语  言 汉语普通话
◎上映日期 2017-11-10(中国大陆)
◎豆瓣评分 4.7/10 from 1,193 users
◎豆瓣链接 https://movie.douban.com/subject/26696871/
◎片  长 99分钟
◎导  演 谷德昭 Vincent Kok
◎主  演 周渝民 Vic Chou
      薛凯琪 Fiona Sit
      郑中基 Ronald Cheng
      恬妞 Niu Tien
      高捷 Jack Kao
      盛朗熙 Joy Sheng

◎简  介

  秦瑞(周渝民 饰)仪表堂堂,英俊潇洒,但总遇不到适合自己的女人,恋爱一波三折,他有些灰心,感觉自己这辈子都不会遇见可以白头到老的女人了。直到有一天,他遇见了佩佩(薛凯琪 饰),真正的爱情才逐渐开始,而他也开始明白什么叫天生一对。

  1. General

  2. Format                         : MPEG-4

  3. Format profile                 : Base Media

  4. Codec ID                       : isom (isom/iso2/avc1/mp41)

  5. File size                      : 4.34 GiB

  6. Duration                       : 1 h 38 min

  7. Overall bit rate               : 6 311 kb/s

  8. Writing application            : Lavf57.41.100



  9. Video

  10. ID                             : 1

  11. Format                         : AVC

  12. Format/Info                    : Advanced Video Codec

  13. Format profile                 : High@L5.1

  14. Format settings                : CABAC / 3 Ref Frames

  15. Format settings, CABAC         : Yes

  16. Format settings, ReFrames      : 3 frames

  17. Codec ID                       : avc1

  18. Codec ID/Info                  : Advanced Video Coding

  19. Duration                       : 1 h 38 min

  20. Bit rate                       : 6 241 kb/s

  21. Width                          : 3 840 pixels

  22. Height                         : 1 632 pixels

  23. Display aspect ratio           : 2.35:1

  24. Frame rate mode                : Variable

  25. Frame rate                     : 24.000 FPS

  26. Minimum frame rate             : 23.810 FPS

  27. Maximum frame rate             : 24.390 FPS

  28. Color space                    : YUV

  29. Chroma subsampling             : 4:2:0

  30. Bit depth                      : 8 bits

  31. Scan type                      : Progressive

  32. Bits/(Pixel*Frame)             : 0.041

  33. Stream size                    : 4.29 GiB (99%)

  34. Writing library                : qiyi.com vtc-test

  35. Color range                    : Limited

  36. Color primaries                : BT.709

  37. Transfer characteristics       : BT.709

  38. Matrix coefficients            : BT.709



  39. Audio

  40. ID                             : 2

  41. Format                         : AAC

  42. Format/Info                    : Advanced Audio Codec

  43. Format profile                 : HE-AAC / LC

  44. Format settings                : Explicit

  45. Codec ID                       : mp4a-40-2

  46. Duration                       : 1 h 38 min

  47. Bit rate mode                  : Constant

  48. Bit rate                       : 62.9 kb/s

  49. Channel(s)                     : 2 channels

  50. Channel positions              : Front: L R

  51. Sampling rate                  : 44.1 kHz / 22.05 kHz

  52. Frame rate                     : 21.533 FPS (1024 SPF)

  53. Compression mode               : Lossy

  54. Stream size                    : 44.3 MiB (1%)

  55. Default                        : Yes

  56. Alternate group                : 1
复制代码

  1. General

  2. Format                         : MPEG-4

  3. Format profile                 : Base Media

  4. Codec ID                       : isom (isom/iso2/avc1/mp41)

  5. File size                      : 1.86 GiB

  6. Duration                       : 1 h 38 min

  7. Overall bit rate               : 2 707 kb/s

  8. Writing application            : Lavf57.41.100



  9. Video

  10. ID                             : 1

  11. Format                         : AVC

  12. Format/Info                    : Advanced Video Codec

  13. Format profile                 : High@L4

  14. Format settings                : CABAC / 3 Ref Frames

  15. Format settings, CABAC         : Yes

  16. Format settings, ReFrames      : 3 frames

  17. Codec ID                       : avc1

  18. Codec ID/Info                  : Advanced Video Coding

  19. Duration                       : 1 h 38 min

  20. Bit rate                       : 2 510 kb/s

  21. Width                          : 1 920 pixels

  22. Height                         : 816 pixels

  23. Display aspect ratio           : 2.35:1

  24. Frame rate mode                : Variable

  25. Frame rate                     : 24.000 FPS

  26. Minimum frame rate             : 23.810 FPS

  27. Maximum frame rate             : 24.390 FPS

  28. Color space                    : YUV

  29. Chroma subsampling             : 4:2:0

  30. Bit depth                      : 8 bits

  31. Scan type                      : Progressive

  32. Bits/(Pixel*Frame)             : 0.067

  33. Stream size                    : 1.73 GiB (93%)

  34. Color range                    : Limited

  35. Color primaries                : BT.709

  36. Transfer characteristics       : BT.709

  37. Matrix coefficients            : BT.709



  38. Audio

  39. ID                             : 2

  40. Format                         : AAC

  41. Format/Info                    : Advanced Audio Codec

  42. Format profile                 : LC

  43. Codec ID                       : mp4a-40-2

  44. Duration                       : 1 h 38 min

  45. Bit rate mode                  : Constant

  46. Bit rate                       : 192 kb/s

  47. Channel(s)                     : 2 channels

  48. Channel positions              : Front: L R

  49. Sampling rate                  : 44.1 kHz

  50. Frame rate                     : 43.066 FPS (1024 SPF)

  51. Compression mode               : Lossy

  52. Stream size                    : 134 MiB (7%)

  53. Default                        : Yes

  54. Alternate group                : 1
复制代码
















BT种子
游客,如果您要查看本帖隐藏内容请回复

本帖子中包含更多资源

您需要 登录 才可以下载或查看,没有帐号?立即注册  

x

举报

回复

12 个评论

您需要登录后才可以回帖 登录 | 立即注册  

本版积分规则

高清剧集推荐

更多

高清MV/综艺

更多

客服中心

400-800-8888 周一至周日 8:30-20:30 仅收市话费

关注我们

  • 手机客户端
  • 关注官方微信
关闭

站长推荐上一条 /1 下一条

关于我们
关于我们
友情链接
联系我们
帮助中心
网友中心
购买须知
支付方式
服务支持
资源下载
售后服务
定制流程
关注我们
官方微博
官方空间
官方微信
快速回复 返回顶部 返回列表