开启左侧

[雪人].The.Snowman.2017.WEB-DL.4k.1080p.x264.AAC-HQC[9.6G]

[复制链接]
258 6
[雪人].The.Snowman.2017.WEB-DL.4k.1080p.x264.AAC-HQC  9.6G



◎译  名 雪人/雪中罪(港)
◎片  名 The Snowman
◎年  代 2017
◎产  地 英国/美国/瑞典
◎类  别 剧情/犯罪/悬疑/惊悚
◎语  言 英语
◎上映日期 2017-10-13(英国)/2017-10-20(美国)
◎IMDb评分  5.2/10 from 13,204 users
◎IMDb链接  http://www.imdb.com/title/tt1758810/
◎豆瓣评分 5.3/10 from 646 users
◎豆瓣链接 https://movie.douban.com/subject/6981146/
◎片  长 115分钟
◎导  演 托马斯·阿尔弗莱德森 Tomas Alfredson
◎主  演 迈克尔·法斯宾德 Michael Fassbender
      丽贝卡·弗格森 Rebecca Ferguson
      詹姆斯·达西 James D'Arcy
      科洛·塞维尼 Chloë Sevigny
      方·基默 Val Kilmer
      J·K·西蒙斯 J.K. Simmons
      杰米·克莱顿 Jamie Clayton
      夏洛特·甘斯布 Charlotte Gainsbourg
      托比·琼斯 Toby Jones
      大卫·丹席克 David Dencik
      索菲亚·海林 Sofia Helin
      雅各布·奥福特布罗 Jakob Oftebro
      罗南·维博特 Ronan Vibert
      安妮·雷德 Anne Reid
      亚力克·纽曼 Alec Newman

◎简  介

  《雪人》根据挪威作家Jo Nesbo在2007年出版的同名畅销小说改编,这部书是他以奥斯陆侦探哈里(Harry Hole)为主角创作的第七本小说。故事主要讲述哈里在调查一位年轻妈妈失踪案件的时候,发现受害人院子里出现了一个神秘的雪人,而且它脖子上还围着这家孩子送给妈妈做圣诞礼物的粉红围巾。由此,哈里挖出了一系列有着相同情况的陈年旧案,一个总爱在落下第一场雪时作案的连环杀人犯浮出了水面……
  《雪人》将由环球公司和Working Title公司联合摄制,如果影片反响良好的话,Jo Nesbo的另外六部侦探哈里小说也将有机会登上大银幕。

  1. General

  2. Format                         : MPEG-4

  3. Format profile                 : Base Media

  4. Codec ID                       : isom (isom/iso2/avc1/mp41)

  5. File size                      : 4.66 GiB

  6. Duration                       : 1 h 54 min

  7. Overall bit rate               : 5 837 kb/s

  8. Writing application            : Lavf57.41.100



  9. Video

  10. ID                             : 1

  11. Format                         : AVC

  12. Format/Info                    : Advanced Video Codec

  13. Format profile                 : High@L5.1

  14. Format settings                : CABAC / 3 Ref Frames

  15. Format settings, CABAC         : Yes

  16. Format settings, ReFrames      : 3 frames

  17. Codec ID                       : avc1

  18. Codec ID/Info                  : Advanced Video Coding

  19. Duration                       : 1 h 54 min

  20. Bit rate                       : 5 768 kb/s

  21. Width                          : 3 840 pixels

  22. Height                         : 2 072 pixels

  23. Display aspect ratio           : 1.85:1

  24. Frame rate mode                : Constant

  25. Frame rate                     : 25.000 FPS

  26. Color space                    : YUV

  27. Chroma subsampling             : 4:2:0

  28. Bit depth                      : 8 bits

  29. Scan type                      : Progressive

  30. Bits/(Pixel*Frame)             : 0.029

  31. Stream size                    : 4.60 GiB (99%)

  32. Writing library                : qiyi.com vtc-test

  33. Color range                    : Limited

  34. Color primaries                : BT.709

  35. Transfer characteristics       : BT.709

  36. Matrix coefficients            : BT.709



  37. Audio

  38. ID                             : 2

  39. Format                         : AAC

  40. Format/Info                    : Advanced Audio Codec

  41. Format profile                 : HE-AAC / LC

  42. Format settings                : Explicit

  43. Codec ID                       : mp4a-40-2

  44. Duration                       : 1 h 54 min

  45. Bit rate mode                  : Constant

  46. Bit rate                       : 62.9 kb/s

  47. Channel(s)                     : 2 channels

  48. Channel positions              : Front: L R

  49. Sampling rate                  : 44.1 kHz / 22.05 kHz

  50. Frame rate                     : 21.533 FPS (1024 SPF)

  51. Compression mode               : Lossy

  52. Stream size                    : 51.4 MiB (1%)

  53. Default                        : Yes

  54. Alternate group                : 1
复制代码

  1. General

  2. Format                         : MPEG-4

  3. Format profile                 : Base Media

  4. Codec ID                       : isom (isom/avc1)

  5. File size                      : 4.94 GiB

  6. Duration                       : 1 h 56 min

  7. Overall bit rate mode          : Variable

  8. Overall bit rate               : 6 060 kb/s

  9. Encoded date                   : UTC 2017-12-07 05:00:16

  10. Tagged date                    : UTC 2017-12-07 05:00:16

  11. Copyright                      : PPTV-2.4.0.(20,20)[1]



  12. Video

  13. ID                             : 1

  14. Format                         : AVC

  15. Format/Info                    : Advanced Video Codec

  16. Format profile                 : High@L4

  17. Format settings                : CABAC / 4 Ref Frames

  18. Format settings, CABAC         : Yes

  19. Format settings, ReFrames      : 4 frames

  20. Codec ID                       : avc1

  21. Codec ID/Info                  : Advanced Video Coding

  22. Duration                       : 1 h 56 min

  23. Bit rate                       : 6 000 kb/s

  24. Maximum bit rate               : 14.3 Mb/s

  25. Width                          : 1 920 pixels

  26. Height                         : 1 080 pixels

  27. Display aspect ratio           : 16:9

  28. Frame rate mode                : Constant

  29. Frame rate                     : 23.976 (24000/1001) FPS

  30. Color space                    : YUV

  31. Chroma subsampling             : 4:2:0

  32. Bit depth                      : 8 bits

  33. Scan type                      : Progressive

  34. Bits/(Pixel*Frame)             : 0.121

  35. Stream size                    : 4.86 GiB (98%)

  36. Title                          : VideoByEZMediaEditor

  37. Writing library                : x264()-core 129 - H.264/MPEG-4

  38. Encoding settings              : cabac=1 / ref=4 / deblock=1:0:0 / analyse=0x3:0x133 / me=umh / subme=9 / psy=1 / psy_rd=0.00:0.00 / mixed_ref=1 / me_range=24 / chroma_me=1 / trellis=2 / 8x8dct=1 / cqm=0 / deadzone=21,11 / fast_pskip=0 / chroma_qp_offset=0 / threads=40 / lookahead_threads=6 / sliced_threads=0 / nr=0 / decimate=1 / interlaced=0 / bluray_compat=0 / constrained_intra=0 / bframes=4 / b_pyramid=2 / b_adapt=0 / b_bias=0 / direct=3 / weightb=1 / open_gop=0 / weightp=2 / keyint=230 / keyint_min=23 / scenecut=40 / intra_refresh=0 / rc_lookahead=60 / rc=abr / mbtree=1 / bitrate=6000 / ratetol=1.0 / qcomp=0.60 / qpmin=0 / qpmax=69 / qpstep=4 / vbv_maxrate=12000 / vbv_bufsize=6000 / nal_hrd=none / ip_ratio=1.40 / aq=1:1.00

  39. Encoded date                   : UTC 2017-12-07 05:00:16

  40. Tagged date                    : UTC 2017-12-07 05:01:04



  41. Audio

  42. ID                             : 2

  43. Format                         : AAC

  44. Format/Info                    : Advanced Audio Codec

  45. Format profile                 : LC

  46. Codec ID                       : mp4a-40-2

  47. Duration                       : 1 h 56 min

  48. Bit rate mode                  : Variable

  49. Bit rate                       : 93.6 kb/s

  50. Maximum bit rate               : 98.6 kb/s

  51. Channel(s)                     : 1 channel

  52. Channel positions              : Front: C

  53. Sampling rate                  : 44.1 kHz

  54. Frame rate                     : 43.066 FPS (1024 SPF)

  55. Compression mode               : Lossy

  56. Stream size                    : 78.2 MiB (2%)

  57. Title                          : Audio1-English

  58. Language                       : English

  59. Encoded date                   : UTC 2017-12-07 05:01:04

  60. Tagged date                    : UTC 2017-12-07 05:01:04
复制代码
















BT种子
游客,如果您要查看本帖隐藏内容请回复

本帖子中包含更多资源

您需要 登录 才可以下载或查看,没有帐号?立即注册  

x

举报

回复

6 个评论

您需要登录后才可以回帖 登录 | 立即注册  

本版积分规则

VIP会员招募,免广告,免回复,免收费下载
搜索

高清剧集推荐

更多

高清MV/综艺

更多

客服中心

400-800-8888 周一至周日 8:30-20:30 仅收市话费

关注我们

  • 手机客户端
  • 关注官方微信
关闭

站长推荐上一条 /1 下一条

关于我们
关于我们
友情链接
联系我们
帮助中心
网友中心
购买须知
支付方式
服务支持
资源下载
售后服务
定制流程
关注我们
官方微博
官方空间
官方微信
快速回复 返回顶部 返回列表