开启左侧

[请爱我的女朋友].Please.Love.Her.2017.WEB-DL.4k.1080p.x264.AAC-HQC[4.56G]

[复制链接]
291 3
[请爱我的女朋友].Please.Love.Her.2017.WEB-DL.4k.1080p.x264.AAC-HQC  4.56G



◎译  名 请爱我的女朋友/PleaseLoveHer
◎片  名 请爱我的女朋友
◎年  代 2017
◎产  地 台湾
◎类  别 爱情
◎语  言 汉语普通话
◎上映日期 2017-10-20(中国大陆)
◎豆瓣评分 3.4/10 from 36 users
◎豆瓣链接 https://movie.douban.com/subject/27157767/
◎片  长 90分钟
◎导  演 郭春晖 Choon Hooi Ker
◎主  演 张怀秋 Harry
      梁正群 Danny Liang
      项瑾 Jin Xiang
      张书豪 Bryan Shu-Hao Chang
      谢佳见 Melvin Sia
      夏如芝 Cherry Hsia
      薛仕凌 Simon Hsueh
      詹子晴 Yako Chan

◎简  介

  三个不识愁滋味的青年-蓓蓓(项瑾 饰)、许乐(张怀秋 饰)和许治(梁正群 饰),大学毕业时决定开一间婚礼顾问公司,蓓蓓和许治这对情侣也决定结婚,而许治的堂弟许乐一向爱慕蓓蓓,也毫不遮掩老是故意介入两人世界,三个人就这样打打闹闹,渡过许多幸福时光,然而许治却患了不治之症,不久即辞世,蓓蓓顿时从幸福的小女人跌入谷底,而许乐也不好受,他失去最敬爱的堂哥,也失去追求蓓蓓的勇气。许乐基于堂哥的托付成立婚顾公司,取名幸福种子工作室,希望幸福能像种子一样萌芽茁壮,带领他们体验生命中各种幸福。然而幸福并非一蹴可几的事,幸福种子工作室所承办的每场婚礼,其过程总有意想不到的冲突和惊奇……但是许治的死,依然梗在许乐和蓓蓓之间,没想到许治的最后一封时空信,竟揭开了三个人的秘密往事,这一次,许乐和蓓蓓都得面对这场幸福的心风暴……

  1. General

  2. Format                         : MPEG-4

  3. Format profile                 : Base Media

  4. Codec ID                       : isom (isom/iso2/avc1/mp41)

  5. File size                      : 3.29 GiB

  6. Duration                       : 1 h 29 min

  7. Overall bit rate               : 5 271 kb/s

  8. Writing application            : Lavf57.41.100



  9. Video

  10. ID                             : 1

  11. Format                         : AVC

  12. Format/Info                    : Advanced Video Codec

  13. Format profile                 : High@L5.1

  14. Format settings                : CABAC / 3 Ref Frames

  15. Format settings, CABAC         : Yes

  16. Format settings, ReFrames      : 3 frames

  17. Codec ID                       : avc1

  18. Codec ID/Info                  : Advanced Video Coding

  19. Duration                       : 1 h 29 min

  20. Bit rate                       : 5 202 kb/s

  21. Width                          : 3 840 pixels

  22. Height                         : 1 792 pixels

  23. Display aspect ratio           : 2.143

  24. Frame rate mode                : Variable

  25. Frame rate                     : 24.000 FPS

  26. Minimum frame rate             : 23.810 FPS

  27. Maximum frame rate             : 24.390 FPS

  28. Color space                    : YUV

  29. Chroma subsampling             : 4:2:0

  30. Bit depth                      : 8 bits

  31. Scan type                      : Progressive

  32. Bits/(Pixel*Frame)             : 0.031

  33. Stream size                    : 3.25 GiB (99%)

  34. Writing library                : qiyi.com vtc-test

  35. Color range                    : Limited

  36. Color primaries                : BT.709

  37. Transfer characteristics       : BT.709

  38. Matrix coefficients            : BT.709



  39. Audio

  40. ID                             : 2

  41. Format                         : AAC

  42. Format/Info                    : Advanced Audio Codec

  43. Format profile                 : HE-AAC / LC

  44. Format settings                : Explicit

  45. Codec ID                       : mp4a-40-2

  46. Duration                       : 1 h 29 min

  47. Bit rate mode                  : Constant

  48. Bit rate                       : 62.9 kb/s

  49. Channel(s)                     : 2 channels

  50. Channel positions              : Front: L R

  51. Sampling rate                  : 44.1 kHz / 22.05 kHz

  52. Frame rate                     : 21.533 FPS (1024 SPF)

  53. Compression mode               : Lossy

  54. Stream size                    : 40.2 MiB (1%)

  55. Default                        : Yes

  56. Alternate group                : 1
复制代码

  1. General

  2. Format                         : MPEG-4

  3. Format profile                 : Base Media

  4. Codec ID                       : isom (isom/iso2/avc1/mp41)

  5. File size                      : 1.27 GiB

  6. Duration                       : 1 h 29 min

  7. Overall bit rate               : 2 040 kb/s

  8. Writing application            : Lavf57.41.100



  9. Video

  10. ID                             : 1

  11. Format                         : AVC

  12. Format/Info                    : Advanced Video Codec

  13. Format profile                 : High@L4

  14. Format settings                : CABAC / 3 Ref Frames

  15. Format settings, CABAC         : Yes

  16. Format settings, ReFrames      : 3 frames

  17. Codec ID                       : avc1

  18. Codec ID/Info                  : Advanced Video Coding

  19. Duration                       : 1 h 29 min

  20. Bit rate                       : 1 971 kb/s

  21. Width                          : 1 920 pixels

  22. Height                         : 896 pixels

  23. Display aspect ratio           : 2.143

  24. Frame rate mode                : Variable

  25. Frame rate                     : 24.000 FPS

  26. Minimum frame rate             : 23.810 FPS

  27. Maximum frame rate             : 24.390 FPS

  28. Color space                    : YUV

  29. Chroma subsampling             : 4:2:0

  30. Bit depth                      : 8 bits

  31. Scan type                      : Progressive

  32. Bits/(Pixel*Frame)             : 0.048

  33. Stream size                    : 1.23 GiB (97%)

  34. Writing library                : qiyi.com vtc-test

  35. Color range                    : Limited

  36. Color primaries                : BT.709

  37. Transfer characteristics       : BT.709

  38. Matrix coefficients            : BT.709



  39. Audio

  40. ID                             : 2

  41. Format                         : AAC

  42. Format/Info                    : Advanced Audio Codec

  43. Format profile                 : HE-AAC / LC

  44. Format settings                : Explicit

  45. Codec ID                       : mp4a-40-2

  46. Duration                       : 1 h 29 min

  47. Bit rate mode                  : Constant

  48. Bit rate                       : 62.9 kb/s

  49. Channel(s)                     : 2 channels

  50. Channel positions              : Front: L R

  51. Sampling rate                  : 44.1 kHz / 22.05 kHz

  52. Frame rate                     : 21.533 FPS (1024 SPF)

  53. Compression mode               : Lossy

  54. Stream size                    : 40.2 MiB (3%)

  55. Default                        : Yes

  56. Alternate group                : 1
复制代码
















BT种子
游客,如果您要查看本帖隐藏内容请回复

本帖子中包含更多资源

您需要 登录 才可以下载或查看,没有帐号?立即注册  

x

举报

回复

3 个评论

您需要登录后才可以回帖 登录 | 立即注册  

本版积分规则

高清剧集推荐

更多

高清MV/综艺

更多

客服中心

400-800-8888 周一至周日 8:30-20:30 仅收市话费

关注我们

  • 手机客户端
  • 关注官方微信
关闭

站长推荐上一条 /1 下一条

关于我们
关于我们
友情链接
联系我们
帮助中心
网友中心
购买须知
支付方式
服务支持
资源下载
售后服务
定制流程
关注我们
官方微博
官方空间
官方微信
快速回复 返回顶部 返回列表