开启左侧

[暴雪将至].The.Looming.Storm.2017.WEB-DL.4k.1080p.x264.AAC-HQC[3.98G]

[复制链接]
757 17
[暴雪将至].The.Looming.Storm.2017.WEB-DL.4k.1080p.x264.AAC-HQC  3.98G



◎译  名 TheLoomingStorm
◎片  名 暴雪将至
◎年  代 2017
◎产  地 中国大陆
◎类  别 剧情/犯罪/悬疑
◎语  言 汉语普通话
◎上映日期 2017-10-29(东京电影节)/2017-11-17(中国大陆)
◎IMDb评分  6.8/10 from 43 users
◎IMDb链接  http://www.imdb.com/title/tt7649320/
◎豆瓣评分 7.1/10 from 24,508 users
◎豆瓣链接 https://movie.douban.com/subject/26775933/
◎片  长 118分钟
◎导  演 董越 Yue Dong
◎主  演 段奕宏 Yihong Duan
      江一燕 Yiyan Jiang
      杜源 Yuan Du
      郑伟 Wei Zheng
      郑楚一 Chuyi Zheng
      张林 Lin Zhang

◎简  介

  该片讲述的是上世纪九十年代某个小城,天气预报中一场百年不遇的暴雪即将侵袭此地,人心惶惶时骤然发生了一起残忍的连环杀人案。一心想进入体制内的保卫科干事余国伟(段奕宏饰)渴望借此机会,一展自己颇为得意的“神探”技能,并破格进入体制内成为真正的警察及模范。面对“探案”欲望与燕子(江一燕饰)的感情,余神探越陷越深,付出的代价也越来越大。然而宿命因果,万事皆有定数…

◎获奖情况

  第30届东京国际电影节  (2017)
  主竞赛单元 最佳男演员 段奕宏
  主竞赛单元 最佳艺术贡献奖
  主竞赛单元(提名) 董越

  1. General

  2. Format                         : MPEG-4

  3. Format profile                 : Base Media

  4. Codec ID                       : isom (isom/iso2/avc1/mp41)

  5. File size                      : 2.59 GiB

  6. Duration                       : 1 h 58 min

  7. Overall bit rate               : 3 128 kb/s

  8. Writing application            : Lavf57.41.100



  9. Video

  10. ID                             : 1

  11. Format                         : AVC

  12. Format/Info                    : Advanced Video Codec

  13. Format profile                 : High@L5.1

  14. Format settings                : CABAC / 3 Ref Frames

  15. Format settings, CABAC         : Yes

  16. Format settings, ReFrames      : 3 frames

  17. Codec ID                       : avc1

  18. Codec ID/Info                  : Advanced Video Coding

  19. Duration                       : 1 h 58 min

  20. Bit rate                       : 3 059 kb/s

  21. Width                          : 3 840 pixels

  22. Height                         : 1 600 pixels

  23. Display aspect ratio           : 2.40:1

  24. Frame rate mode                : Variable

  25. Frame rate                     : 24.000 FPS

  26. Minimum frame rate             : 23.810 FPS

  27. Maximum frame rate             : 24.390 FPS

  28. Color space                    : YUV

  29. Chroma subsampling             : 4:2:0

  30. Bit depth                      : 8 bits

  31. Scan type                      : Progressive

  32. Bits/(Pixel*Frame)             : 0.021

  33. Stream size                    : 2.54 GiB (98%)

  34. Writing library                : qiyi.com vtc-test

  35. Color range                    : Limited

  36. Color primaries                : BT.709

  37. Transfer characteristics       : BT.709

  38. Matrix coefficients            : BT.709



  39. Audio

  40. ID                             : 2

  41. Format                         : AAC

  42. Format/Info                    : Advanced Audio Codec

  43. Format profile                 : HE-AAC / LC

  44. Format settings                : Explicit

  45. Codec ID                       : mp4a-40-2

  46. Duration                       : 1 h 58 min

  47. Bit rate mode                  : Constant

  48. Bit rate                       : 63.0 kb/s

  49. Channel(s)                     : 2 channels

  50. Channel positions              : Front: L R

  51. Sampling rate                  : 44.1 kHz / 22.05 kHz

  52. Frame rate                     : 21.533 FPS (1024 SPF)

  53. Compression mode               : Lossy

  54. Stream size                    : 53.4 MiB (2%)

  55. Default                        : Yes

  56. Alternate group                : 1
复制代码

  1. General

  2. Format                         : MPEG-4

  3. Format profile                 : Base Media

  4. Codec ID                       : isom (isom/iso2/avc1/mp41)

  5. File size                      : 1.39 GiB

  6. Duration                       : 1 h 58 min

  7. Overall bit rate               : 1 679 kb/s

  8. Writing application            : Lavf57.41.100



  9. Video

  10. ID                             : 1

  11. Format                         : AVC

  12. Format/Info                    : Advanced Video Codec

  13. Format profile                 : High@L4

  14. Format settings                : CABAC / 3 Ref Frames

  15. Format settings, CABAC         : Yes

  16. Format settings, ReFrames      : 3 frames

  17. Codec ID                       : avc1

  18. Codec ID/Info                  : Advanced Video Coding

  19. Duration                       : 1 h 58 min

  20. Bit rate                       : 1 482 kb/s

  21. Width                          : 1 920 pixels

  22. Height                         : 800 pixels

  23. Display aspect ratio           : 2.40:1

  24. Frame rate mode                : Variable

  25. Frame rate                     : 24.000 FPS

  26. Minimum frame rate             : 23.810 FPS

  27. Maximum frame rate             : 24.390 FPS

  28. Color space                    : YUV

  29. Chroma subsampling             : 4:2:0

  30. Bit depth                      : 8 bits

  31. Scan type                      : Progressive

  32. Bits/(Pixel*Frame)             : 0.040

  33. Stream size                    : 1.23 GiB (88%)

  34. Color range                    : Limited

  35. Color primaries                : BT.709

  36. Transfer characteristics       : BT.709

  37. Matrix coefficients            : BT.709



  38. Audio

  39. ID                             : 2

  40. Format                         : AAC

  41. Format/Info                    : Advanced Audio Codec

  42. Format profile                 : LC

  43. Codec ID                       : mp4a-40-2

  44. Duration                       : 1 h 58 min

  45. Bit rate mode                  : Constant

  46. Bit rate                       : 192 kb/s

  47. Channel(s)                     : 2 channels

  48. Channel positions              : Front: L R

  49. Sampling rate                  : 44.1 kHz

  50. Frame rate                     : 43.066 FPS (1024 SPF)

  51. Compression mode               : Lossy

  52. Stream size                    : 161 MiB (11%)

  53. Default                        : Yes

  54. Alternate group                : 1
复制代码
















BT种子
游客,如果您要查看本帖隐藏内容请回复

本帖子中包含更多资源

您需要 登录 才可以下载或查看,没有帐号?立即注册  

x

举报

回复

17 个评论

您需要登录后才可以回帖 登录 | 立即注册  

本版积分规则

高清剧集推荐

更多

高清MV/综艺

更多

客服中心

400-800-8888 周一至周日 8:30-20:30 仅收市话费

关注我们

  • 手机客户端
  • 关注官方微信
关闭

站长推荐上一条 /1 下一条

关于我们
关于我们
友情链接
联系我们
帮助中心
网友中心
购买须知
支付方式
服务支持
资源下载
售后服务
定制流程
关注我们
官方微博
官方空间
官方微信
快速回复 返回顶部 返回列表