开启左侧

[童话先生].Mr.Made.2017.WEB-DL.4k.1080p.x264.AAC-HQC[4.53G]

[复制链接]
124 2
[童话先生].Mr.Made.2017.WEB-DL.4k.1080p.x264.AAC-HQC  4.53G



◎译  名 Mr.Made
◎片  名 童话先生
◎年  代 2017
◎产  地 中国大陆
◎类  别 剧情/喜剧
◎语  言 汉语普通话
◎上映日期 2017-10-24(中国大陆)
◎豆瓣评分 5.1/10 from 72 users
◎豆瓣链接 https://movie.douban.com/subject/27158354/
◎片  长 90分钟
◎导  演 李宗泰 Zongtai Li
◎主  演 曹操 Jonathan Kos-Read
      王静博 Jingbo Wang
      甫枭虎 Xiaohu Fu
      蒋欣枚 Xinmei Jiang
      王明帅 Mingshuai Wang
      杨鑫 Xin Yang
      易子琦 Ziqi Yi
      梁木 Mu Liang
      方瑶 Yao Fang

◎简  介

  主人公玛德是一位正处在人生低谷中的英国童话作家,在Lucky的鼓励下,他只身一人来到云南的山村支教,遇到了古板的村长、严厉的正牌支教女老师和一群天真的孩子,麻烦和幸运也接踵而来。

  1. General

  2. Format                         : MPEG-4

  3. Format profile                 : Base Media

  4. Codec ID                       : isom (isom/iso2/avc1/mp41)

  5. File size                      : 3.16 GiB

  6. Duration                       : 1 h 29 min

  7. Overall bit rate               : 5 049 kb/s

  8. Writing application            : Lavf57.41.100



  9. Video

  10. ID                             : 1

  11. Format                         : AVC

  12. Format/Info                    : Advanced Video Codec

  13. Format profile                 : High@L5.1

  14. Format settings                : CABAC / 3 Ref Frames

  15. Format settings, CABAC         : Yes

  16. Format settings, ReFrames      : 3 frames

  17. Codec ID                       : avc1

  18. Codec ID/Info                  : Advanced Video Coding

  19. Duration                       : 1 h 29 min

  20. Bit rate                       : 4 980 kb/s

  21. Width                          : 3 840 pixels

  22. Height                         : 1 704 pixels

  23. Display aspect ratio           : 2.25:1

  24. Frame rate mode                : Variable

  25. Frame rate                     : 24.000 FPS

  26. Minimum frame rate             : 23.810 FPS

  27. Maximum frame rate             : 24.390 FPS

  28. Color space                    : YUV

  29. Chroma subsampling             : 4:2:0

  30. Bit depth                      : 8 bits

  31. Scan type                      : Progressive

  32. Bits/(Pixel*Frame)             : 0.032

  33. Stream size                    : 3.12 GiB (99%)

  34. Writing library                : qiyi.com vtc-test

  35. Color range                    : Limited

  36. Color primaries                : BT.709

  37. Transfer characteristics       : BT.709

  38. Matrix coefficients            : BT.709



  39. Audio

  40. ID                             : 2

  41. Format                         : AAC

  42. Format/Info                    : Advanced Audio Codec

  43. Format profile                 : HE-AAC / LC

  44. Format settings                : Explicit

  45. Codec ID                       : mp4a-40-2

  46. Duration                       : 1 h 29 min

  47. Bit rate mode                  : Constant

  48. Bit rate                       : 62.9 kb/s

  49. Channel(s)                     : 2 channels

  50. Channel positions              : Front: L R

  51. Sampling rate                  : 44.1 kHz / 22.05 kHz

  52. Frame rate                     : 21.533 FPS (1024 SPF)

  53. Compression mode               : Lossy

  54. Stream size                    : 40.4 MiB (1%)

  55. Default                        : Yes

  56. Alternate group                : 1
复制代码

  1. General

  2. Format                         : MPEG-4

  3. Format profile                 : Base Media

  4. Codec ID                       : isom (isom/iso2/avc1/mp41)

  5. File size                      : 1.37 GiB

  6. Duration                       : 1 h 29 min

  7. Overall bit rate               : 2 184 kb/s

  8. Writing application            : Lavf57.41.100



  9. Video

  10. ID                             : 1

  11. Format                         : AVC

  12. Format/Info                    : Advanced Video Codec

  13. Format profile                 : High@L4

  14. Format settings                : CABAC / 3 Ref Frames

  15. Format settings, CABAC         : Yes

  16. Format settings, ReFrames      : 3 frames

  17. Codec ID                       : avc1

  18. Codec ID/Info                  : Advanced Video Coding

  19. Duration                       : 1 h 29 min

  20. Bit rate                       : 1 986 kb/s

  21. Width                          : 1 920 pixels

  22. Height                         : 848 pixels

  23. Display aspect ratio           : 2.25:1

  24. Frame rate mode                : Variable

  25. Frame rate                     : 24.000 FPS

  26. Minimum frame rate             : 23.810 FPS

  27. Maximum frame rate             : 24.390 FPS

  28. Color space                    : YUV

  29. Chroma subsampling             : 4:2:0

  30. Bit depth                      : 8 bits

  31. Scan type                      : Progressive

  32. Bits/(Pixel*Frame)             : 0.051

  33. Stream size                    : 1.24 GiB (91%)

  34. Color range                    : Limited

  35. Color primaries                : BT.709

  36. Transfer characteristics       : BT.709

  37. Matrix coefficients            : BT.709



  38. Audio

  39. ID                             : 2

  40. Format                         : AAC

  41. Format/Info                    : Advanced Audio Codec

  42. Format profile                 : LC

  43. Codec ID                       : mp4a-40-2

  44. Duration                       : 1 h 29 min

  45. Bit rate mode                  : Constant

  46. Bit rate                       : 192 kb/s

  47. Channel(s)                     : 2 channels

  48. Channel positions              : Front: L R

  49. Sampling rate                  : 44.1 kHz

  50. Frame rate                     : 43.066 FPS (1024 SPF)

  51. Compression mode               : Lossy

  52. Stream size                    : 122 MiB (9%)

  53. Default                        : Yes

  54. Alternate group                : 1
复制代码
















BT种子
游客,如果您要查看本帖隐藏内容请回复

本帖子中包含更多资源

您需要 登录 才可以下载或查看,没有帐号?立即注册  

x

举报

回复

2 个评论

您需要登录后才可以回帖 登录 | 立即注册  

本版积分规则

高清剧集推荐

更多

高清MV/综艺

更多

客服中心

400-800-8888 周一至周日 8:30-20:30 仅收市话费

关注我们

  • 手机客户端
  • 关注官方微信
关闭

站长推荐上一条 /1 下一条

关于我们
关于我们
友情链接
联系我们
帮助中心
网友中心
购买须知
支付方式
服务支持
资源下载
售后服务
定制流程
关注我们
官方微博
官方空间
官方微信
快速回复 返回顶部 返回列表