开启左侧

[缝纫机乐队].City.of.Rock.2017.WEB-DL.4k.1080p.x264.AAC-HQC[7.8G]

[复制链接]
580 37
[缝纫机乐队].City.of.Rock.2017.WEB-DL.4k.1080p.x264.AAC-HQC  7.8G



◎译  名 CityofRock
◎片  名 缝纫机乐队
◎年  代 2017
◎产  地 中国大陆
◎类  别 喜剧/音乐
◎语  言 汉语普通话
◎上映日期 2017-09-29(中国大陆)
◎IMDb评分  6.6/10 from 85 users
◎IMDb链接  http://www.imdb.com/title/tt7339584/
◎豆瓣评分 6.9/10 from 76,401 users
◎豆瓣链接 https://movie.douban.com/subject/26926321/
◎片  长 117分钟
◎导  演 大鹏 Da Peng
◎主  演 大鹏 Da Peng
      乔杉 Shan Qiao
      娜扎 NaZha
      李鸿其 Hong-Chi Lee
      韩童生 Tongsheng Han
      曲隽希 Junxi Qu
      于谦 Qian Yu
      岳云鹏 Yun-peng Yue
      王劲松 Jinsong Wang
      于洋 Yang Yu
      代乐乐 Lele Dai
      赵英俊 Yingjun Zhao
      马大明 Daming Ma
      张一鸣 Yiming Zhang
      衣云鹤 Yunhe Yi
      曹然然 Ranran Cao
      曹桐睿 Tongrui Cao
      宋小宝 Xiaobao Song
      刘小光 Xiaoguang Liu
      文松 Song Wen
      宋晓峰 Xiaofeng Song
      周冬雨 Dongyu Zhou
      袁姗姗 Shanshan Yuan
      宋茜 Victoria Song
      林志玲 Chiling Lin

◎简  介

  《缝纫机乐队》是大鹏的第二部导演作品,延续了小人物逐梦的故事,讲述了一群有趣的摇滚爱好者帮小镇集安重拾音乐梦想的故事。
  小镇青年胡亮(乔杉 饰)为守护家乡摇滚公园,高薪请来音乐经纪人程宫(董成鹏 饰)筹办演唱会。最后集合了鼓手-炸药(李鸿其 饰),贝斯手-丁建国(娜扎 饰),吉他手-杨双树(韩童生 饰),键盘手-希希(曲隽希 饰)组建了“缝纫机乐队”,演出筹备之际,当地房地产大亨为尽快拆除公园,表示愿出高价迫使程宫取消演出。面对高额诱惑和音乐梦想,程宫该何去何从?摇滚小镇集安的摇滚公园能否保全,集安人的摇滚梦想又将何去何从呢……

  1. General

  2. Format                         : MPEG-4

  3. Format profile                 : Base Media

  4. Codec ID                       : isom (isom/iso2/avc1/mp41)

  5. File size                      : 5.53 GiB

  6. Duration                       : 1 h 57 min

  7. Overall bit rate mode          : Variable

  8. Overall bit rate               : 6 758 kb/s

  9. Writing application            : Lavf57.41.100



  10. Video

  11. ID                             : 1

  12. Format                         : AVC

  13. Format/Info                    : Advanced Video Codec

  14. Format profile                 : High@L5.1

  15. Format settings                : CABAC / 3 Ref Frames

  16. Format settings, CABAC         : Yes

  17. Format settings, ReFrames      : 3 frames

  18. Codec ID                       : avc1

  19. Codec ID/Info                  : Advanced Video Coding

  20. Duration                       : 1 h 57 min

  21. Bit rate                       : 6 690 kb/s

  22. Width                          : 3 840 pixels

  23. Height                         : 1 616 pixels

  24. Display aspect ratio           : 2.40:1

  25. Frame rate mode                : Variable

  26. Frame rate                     : 23.976 (23976/1000) FPS

  27. Minimum frame rate             : 0.108 FPS

  28. Maximum frame rate             : 24.390 FPS

  29. Original frame rate            : 24.000 FPS

  30. Color space                    : YUV

  31. Chroma subsampling             : 4:2:0

  32. Bit depth                      : 8 bits

  33. Scan type                      : Progressive

  34. Bits/(Pixel*Frame)             : 0.045

  35. Stream size                    : 5.48 GiB (99%)

  36. Color range                    : Limited

  37. Color primaries                : BT.709

  38. Transfer characteristics       : BT.709

  39. Matrix coefficients            : BT.709



  40. Audio

  41. ID                             : 2

  42. Format                         : AAC

  43. Format/Info                    : Advanced Audio Codec

  44. Format profile                 : HE-AAC / LC

  45. Format settings                : Implicit

  46. Codec ID                       : mp4a-40-2

  47. Duration                       : 1 h 57 min

  48. Bit rate mode                  : Variable

  49. Bit rate                       : 62.8 kb/s

  50. Maximum bit rate               : 64.6 kb/s

  51. Channel(s)                     : 2 channels

  52. Channel positions              : Front: L R

  53. Sampling rate                  : 44.1 kHz / 22.05 kHz

  54. Frame rate                     : 21.533 FPS (1024 SPF)

  55. Compression mode               : Lossy

  56. Stream size                    : 52.7 MiB (1%)

  57. Default                        : Yes

  58. Alternate group                : 1
复制代码

  1. General

  2. Format                         : MPEG-4

  3. Format profile                 : Base Media

  4. Codec ID                       : isom (isom/iso2/avc1/mp41)

  5. File size                      : 2.27 GiB

  6. Duration                       : 1 h 57 min

  7. Overall bit rate               : 2 767 kb/s

  8. Writing application            : Lavf57.41.100



  9. Video

  10. ID                             : 1

  11. Format                         : AVC

  12. Format/Info                    : Advanced Video Codec

  13. Format profile                 : High@L4

  14. Format settings                : CABAC / 3 Ref Frames

  15. Format settings, CABAC         : Yes

  16. Format settings, ReFrames      : 3 frames

  17. Codec ID                       : avc1

  18. Codec ID/Info                  : Advanced Video Coding

  19. Duration                       : 1 h 57 min

  20. Bit rate                       : 2 699 kb/s

  21. Width                          : 1 920 pixels

  22. Height                         : 808 pixels

  23. Display aspect ratio           : 2.40:1

  24. Frame rate mode                : Variable

  25. Frame rate                     : 24.000 FPS

  26. Minimum frame rate             : 23.810 FPS

  27. Maximum frame rate             : 24.390 FPS

  28. Color space                    : YUV

  29. Chroma subsampling             : 4:2:0

  30. Bit depth                      : 8 bits

  31. Scan type                      : Progressive

  32. Bits/(Pixel*Frame)             : 0.072

  33. Stream size                    : 2.21 GiB (98%)

  34. Writing library                : qiyi.com vtc-test

  35. Color range                    : Limited

  36. Color primaries                : BT.709

  37. Transfer characteristics       : BT.709

  38. Matrix coefficients            : BT.709



  39. Audio

  40. ID                             : 2

  41. Format                         : AAC

  42. Format/Info                    : Advanced Audio Codec

  43. Format profile                 : HE-AAC / LC

  44. Format settings                : Explicit

  45. Codec ID                       : mp4a-40-2

  46. Duration                       : 1 h 57 min

  47. Bit rate mode                  : Constant

  48. Bit rate                       : 62.9 kb/s

  49. Channel(s)                     : 2 channels

  50. Channel positions              : Front: L R

  51. Sampling rate                  : 44.1 kHz / 22.05 kHz

  52. Frame rate                     : 21.533 FPS (1024 SPF)

  53. Compression mode               : Lossy

  54. Stream size                    : 52.8 MiB (2%)

  55. Default                        : Yes

  56. Alternate group                : 1
复制代码
















BT种子
游客,如果您要查看本帖隐藏内容请回复

本帖子中包含更多资源

您需要 登录 才可以下载或查看,没有帐号?立即注册  

x

举报

回复

37 个评论

您需要登录后才可以回帖 登录 | 立即注册  

本版积分规则

高清剧集推荐

更多

高清MV/综艺

更多

客服中心

400-800-8888 周一至周日 8:30-20:30 仅收市话费

关注我们

  • 手机客户端
  • 关注官方微信
关闭

站长推荐上一条 /1 下一条

关于我们
关于我们
友情链接
联系我们
帮助中心
网友中心
购买须知
支付方式
服务支持
资源下载
售后服务
定制流程
关注我们
官方微博
官方空间
官方微信
快速回复 返回顶部 返回列表