开启左侧

[相爱相亲].Love.Education.2017.WEB-DL.4k.1080p.x264.AAC-HQC[7.16G]

[复制链接]
280 8
[相爱相亲].Love.Education.2017.WEB-DL.4k.1080p.x264.AAC-HQC  7.16G



◎译  名 LoveEducation
◎片  名 相爱相亲
◎年  代 2017
◎产  地 中国大陆/台湾
◎类  别 剧情/爱情
◎语  言 汉语普通话
◎上映日期 2017-10-21(釜山电影节)/2017-11-03(中国大陆)
◎IMDb评分  7.8/10 from 151 users
◎IMDb链接  http://www.imdb.com/title/tt7479718/
◎豆瓣评分 8.6/10 from 37,022 users
◎豆瓣链接 https://movie.douban.com/subject/26773744/
◎片  长 120分钟
◎导  演 张艾嘉 Sylvia Chang
◎主  演 张艾嘉 Sylvia Chang
      田壮壮 Zhuangzhuang Tian
      郎月婷 Yueting Lang
      宋宁 Ning Song
      吴彦姝 Yanshu Wu
      耿乐 Le Geng
      谭维维 Weiwei Tan
      刘若英 René Liu
      王志文 Zhiwen Wang
      李雪健 Xuejian Li
      马嘉祺
      张艺瀚  Hummer

◎简  介

  岳惠英(张艾嘉 饰)的母亲去世之后,惠英最大的念想就是将远葬在乡下的父亲的坟迁回城里,和母亲葬在一起,这个念头让她和父亲的原配姥姥(吴彦姝 饰)之间爆发了巨大的矛盾。迁坟的事成为了惠英的心结,亦让她和丈夫孝平(田壮壮 饰)之间的感情产生了裂痕。
  惠英的女儿薇薇(朗月婷 饰)是电视台的栏目记者,对姥姥的过去充满了好奇的她将这场“家庭矛盾”搬上了电视,展现在了大众面前,虽然出发点是善意的,可整个事件却愈演愈烈最后变成了一出闹剧。与此同时,薇薇和男友阿达(宋宁峰 饰)之间的感情因为阿达的青梅竹马的出现而遭遇了信任危机,这让她对等了外公一辈子也孤独的生活了一辈子的姥姥产生了莫名的亲近之感。

◎获奖情况

  第54届台北金马影展  (2017)
  金马奖 最佳剧情片(提名)
  金马奖 最佳导演(提名) 张艾嘉
  金马奖 最佳男主角(提名) 田壮壮
  金马奖 最佳女主角(提名) 张艾嘉
  金马奖 最佳女配角(提名) 吴彦姝
  金马奖 最佳原著剧本(提名) 游晓颖 / 张艾嘉
  金马奖 最佳原创歌曲(提名) 谭维维 / 黄韵玲

  1. General

  2. Format                         : MPEG-4

  3. Format profile                 : Base Media

  4. Codec ID                       : isom (isom/iso2/avc1/mp41)

  5. File size                      : 5.07 GiB

  6. Duration                       : 2 h 1 min

  7. Overall bit rate               : 5 981 kb/s

  8. Writing application            : Lavf57.41.100



  9. Video

  10. ID                             : 1

  11. Format                         : AVC

  12. Format/Info                    : Advanced Video Codec

  13. Format profile                 : High@L5.1

  14. Format settings                : CABAC / 3 Ref Frames

  15. Format settings, CABAC         : Yes

  16. Format settings, ReFrames      : 3 frames

  17. Codec ID                       : avc1

  18. Codec ID/Info                  : Advanced Video Coding

  19. Duration                       : 2 h 1 min

  20. Bit rate                       : 5 911 kb/s

  21. Width                          : 3 840 pixels

  22. Height                         : 1 608 pixels

  23. Display aspect ratio           : 2.40:1

  24. Frame rate mode                : Variable

  25. Frame rate                     : 24.000 FPS

  26. Minimum frame rate             : 23.810 FPS

  27. Maximum frame rate             : 24.390 FPS

  28. Color space                    : YUV

  29. Chroma subsampling             : 4:2:0

  30. Bit depth                      : 8 bits

  31. Scan type                      : Progressive

  32. Bits/(Pixel*Frame)             : 0.040

  33. Stream size                    : 5.01 GiB (99%)

  34. Writing library                : qiyi.com vtc-test

  35. Color range                    : Limited

  36. Color primaries                : BT.709

  37. Transfer characteristics       : BT.709

  38. Matrix coefficients            : BT.709



  39. Audio

  40. ID                             : 2

  41. Format                         : AAC

  42. Format/Info                    : Advanced Audio Codec

  43. Format profile                 : HE-AAC / LC

  44. Format settings                : Explicit

  45. Codec ID                       : mp4a-40-2

  46. Duration                       : 2 h 1 min

  47. Bit rate mode                  : Constant

  48. Bit rate                       : 62.9 kb/s

  49. Channel(s)                     : 2 channels

  50. Channel positions              : Front: L R

  51. Sampling rate                  : 44.1 kHz / 22.05 kHz

  52. Frame rate                     : 21.533 FPS (1024 SPF)

  53. Compression mode               : Lossy

  54. Stream size                    : 54.6 MiB (1%)

  55. Default                        : Yes

  56. Alternate group                : 1
复制代码

  1. General

  2. Format                         : MPEG-4

  3. Format profile                 : Base Media

  4. Codec ID                       : isom (isom/iso2/avc1/mp41)

  5. File size                      : 2.09 GiB

  6. Duration                       : 2 h 1 min

  7. Overall bit rate               : 2 469 kb/s

  8. Writing application            : Lavf57.41.100



  9. Video

  10. ID                             : 1

  11. Format                         : AVC

  12. Format/Info                    : Advanced Video Codec

  13. Format profile                 : High@L4

  14. Format settings                : CABAC / 3 Ref Frames

  15. Format settings, CABAC         : Yes

  16. Format settings, ReFrames      : 3 frames

  17. Codec ID                       : avc1

  18. Codec ID/Info                  : Advanced Video Coding

  19. Duration                       : 2 h 1 min

  20. Bit rate                       : 2 271 kb/s

  21. Width                          : 1 920 pixels

  22. Height                         : 800 pixels

  23. Display aspect ratio           : 2.40:1

  24. Frame rate mode                : Variable

  25. Frame rate                     : 24.000 FPS

  26. Minimum frame rate             : 23.810 FPS

  27. Maximum frame rate             : 24.390 FPS

  28. Color space                    : YUV

  29. Chroma subsampling             : 4:2:0

  30. Bit depth                      : 8 bits

  31. Scan type                      : Progressive

  32. Bits/(Pixel*Frame)             : 0.062

  33. Stream size                    : 1.92 GiB (92%)

  34. Color range                    : Limited

  35. Color primaries                : BT.709

  36. Transfer characteristics       : BT.709

  37. Matrix coefficients            : BT.709



  38. Audio

  39. ID                             : 2

  40. Format                         : AAC

  41. Format/Info                    : Advanced Audio Codec

  42. Format profile                 : LC

  43. Codec ID                       : mp4a-40-2

  44. Duration                       : 2 h 1 min

  45. Bit rate mode                  : Constant

  46. Bit rate                       : 192 kb/s

  47. Channel(s)                     : 2 channels

  48. Channel positions              : Front: L R

  49. Sampling rate                  : 44.1 kHz

  50. Frame rate                     : 43.066 FPS (1024 SPF)

  51. Compression mode               : Lossy

  52. Stream size                    : 165 MiB (8%)

  53. Default                        : Yes

  54. Alternate group                : 1
复制代码
















BT种子
游客,如果您要查看本帖隐藏内容请回复

本帖子中包含更多资源

您需要 登录 才可以下载或查看,没有帐号?立即注册  

x

举报

回复

8 个评论

您需要登录后才可以回帖 登录 | 立即注册  

本版积分规则

VIP会员招募,免广告,免回复,免收费下载
搜索

高清剧集推荐

更多

高清MV/综艺

更多

客服中心

400-800-8888 周一至周日 8:30-20:30 仅收市话费

关注我们

  • 手机客户端
  • 关注官方微信
关闭

站长推荐上一条 /1 下一条

关于我们
关于我们
友情链接
联系我们
帮助中心
网友中心
购买须知
支付方式
服务支持
资源下载
售后服务
定制流程
关注我们
官方微博
官方空间
官方微信
快速回复 返回顶部 返回列表