开启左侧

[血战湘江].Battle.of.XiangJiang.River.2017.WEB-DL.4k.1080p.x264.AAC-HQC[6.81G]

[复制链接]
326 5
[血战湘江].Battle.of.XiangJiang.River.2017.WEB-DL.4k.1080p.x264.AAC-HQC  6.81G


◎译  名 第四道封锁线
◎片  名 血战湘江
◎年  代 2017
◎产  地 中国大陆
◎类  别 历史/战争
◎语  言 汉语普通话
◎上映日期 2017-06-21(上海电影节)/2017-06-30(中国大陆)
◎豆瓣评分 3.7/10 from 2,193 users
◎豆瓣链接 https://movie.douban.com/subject/26916202/
◎片  长 110分钟
◎导  演 陈力 Li Chen
◎主  演 王霙 Ying Wang
      徐箭 Jian Xu
      董勇 Yong Dong
      孙维民 Weimin Sun
      保剑锋 Jianfeng Bao
      耿乐 Le Geng
      张一山 Yishan Zhang
      王大治 Dazhi Wang
      侯天来 Tianlai Hou
      刘之冰 Zhibing Liu
      马晓伟 Xiaowei Ma
      陈创 Chuang Chen
      袁满 Man Yuan
      江南
      王韦智 Weizhi Wang
      陶帅 Shuai Tao

◎简  介

  作为一部为长征胜利八十周年献礼的影片,本片以长征史上最惨烈的湘江之战为背景,成功塑造了以毛泽东为代表的中国工农红军领导人在长征中不屈不挠的光辉形象,深刻揭示了左倾错误路线给红军带来的惨痛损失,生动表现了红军34师官兵前赴后继、勇于牺牲,全力掩护中央红军渡过湘江,为苏维埃流尽最后一滴血的大无畏精神。

◎获奖情况

  第20届上海国际电影节  (2017)
  电影频道传媒大奖 组委会特别奖
  电影频道传媒大奖(提名)

  第31届中国电影金鸡奖  (2017)
  评委会特别奖 特别影片奖
  最佳故事片(提名)
  最佳男配角(提名) 孙维民

  1. General

  2. Format                         : MPEG-4

  3. Format profile                 : Base Media

  4. Codec ID                       : isom (isom/iso2/avc1/mp41)

  5. File size                      : 4.61 GiB

  6. Duration                       : 1 h 50 min

  7. Overall bit rate               : 5 958 kb/s

  8. Writing application            : Lavf57.41.100



  9. Video

  10. ID                             : 1

  11. Format                         : AVC

  12. Format/Info                    : Advanced Video Codec

  13. Format profile                 : [email]High@L5.1[/email]

  14. Format settings                : CABAC / 3 Ref Frames

  15. Format settings, CABAC         : Yes

  16. Format settings, ReFrames      : 3 frames

  17. Codec ID                       : avc1

  18. Codec ID/Info                  : Advanced Video Coding

  19. Duration                       : 1 h 50 min

  20. Bit rate                       : 5 889 kb/s

  21. Width                          : 3 840 pixels

  22. Height                         : 2 160 pixels

  23. Display aspect ratio           : 16:9

  24. Frame rate mode                : Constant

  25. Frame rate                     : 25.000 FPS

  26. Color space                    : YUV

  27. Chroma subsampling             : 4:2:0

  28. Bit depth                      : 8 bits

  29. Scan type                      : Progressive

  30. Bits/(Pixel*Frame)             : 0.028

  31. Stream size                    : 4.55 GiB (99%)

  32. Writing library                : qiyi.com vtc-test

  33. Color range                    : Limited

  34. Color primaries                : BT.709

  35. Transfer characteristics       : BT.709

  36. Matrix coefficients            : BT.709



  37. Audio

  38. ID                             : 2

  39. Format                         : AAC

  40. Format/Info                    : Advanced Audio Codec

  41. Format profile                 : HE-AAC / LC

  42. Format settings                : Explicit

  43. Codec ID                       : mp4a-40-2

  44. Duration                       : 1 h 50 min

  45. Bit rate mode                  : Constant

  46. Bit rate                       : 62.7 kb/s

  47. Channel(s)                     : 2 channels

  48. Channel positions              : Front: L R

  49. Sampling rate                  : 44.1 kHz / 22.05 kHz

  50. Frame rate                     : 21.533 FPS (1024 SPF)

  51. Compression mode               : Lossy

  52. Stream size                    : 49.6 MiB (1%)

  53. Default                        : Yes

  54. Alternate group                : 1
复制代码

  1. General

  2. Format                         : MPEG-4

  3. Format profile                 : Base Media

  4. Codec ID                       : isom (isom/iso2/avc1/mp41)

  5. File size                      : 2.21 GiB

  6. Duration                       : 1 h 50 min

  7. Overall bit rate               : 2 853 kb/s

  8. Writing application            : Lavf57.41.100



  9. Video

  10. ID                             : 1

  11. Format                         : AVC

  12. Format/Info                    : Advanced Video Codec

  13. Format profile                 : High@L4

  14. Format settings                : CABAC / 3 Ref Frames

  15. Format settings, CABAC         : Yes

  16. Format settings, ReFrames      : 3 frames

  17. Codec ID                       : avc1

  18. Codec ID/Info                  : Advanced Video Coding

  19. Duration                       : 1 h 50 min

  20. Bit rate                       : 2 658 kb/s

  21. Width                          : 1 920 pixels

  22. Height                         : 1 080 pixels

  23. Display aspect ratio           : 16:9

  24. Frame rate mode                : Constant

  25. Frame rate                     : 25.000 FPS

  26. Color space                    : YUV

  27. Chroma subsampling             : 4:2:0

  28. Bit depth                      : 8 bits

  29. Scan type                      : Progressive

  30. Bits/(Pixel*Frame)             : 0.051

  31. Stream size                    : 2.06 GiB (93%)

  32. Color range                    : Limited

  33. Color primaries                : BT.709

  34. Transfer characteristics       : BT.709

  35. Matrix coefficients            : BT.709



  36. Audio

  37. ID                             : 2

  38. Format                         : AAC

  39. Format/Info                    : Advanced Audio Codec

  40. Format profile                 : LC

  41. Codec ID                       : mp4a-40-2

  42. Duration                       : 1 h 50 min

  43. Bit rate mode                  : Constant

  44. Bit rate                       : 192 kb/s

  45. Channel(s)                     : 2 channels

  46. Channel positions              : Front: L R

  47. Sampling rate                  : 44.1 kHz

  48. Frame rate                     : 43.066 FPS (1024 SPF)

  49. Compression mode               : Lossy

  50. Stream size                    : 150 MiB (7%)

  51. Default                        : Yes

  52. Alternate group                : 1
复制代码
















BT种子
游客,如果您要查看本帖隐藏内容请回复

本帖子中包含更多资源

您需要 登录 才可以下载或查看,没有帐号?立即注册  

x

举报

回复

5 个评论

您需要登录后才可以回帖 登录 | 立即注册  

本版积分规则

VIP会员招募,免广告,免回复,免收费下载
搜索

高清剧集推荐

更多

高清MV/综艺

更多

客服中心

400-800-8888 周一至周日 8:30-20:30 仅收市话费

关注我们

  • 手机客户端
  • 关注官方微信
关闭

站长推荐上一条 /1 下一条

关于我们
关于我们
友情链接
联系我们
帮助中心
网友中心
购买须知
支付方式
服务支持
资源下载
售后服务
定制流程
关注我们
官方微博
官方空间
官方微信
快速回复 返回顶部 返回列表