开启左侧

[危机边缘].Fringe.S01D05.2008.BluRay.1080p.VC-1.DD.5.1-DIY@HDSky[39.45G]

[复制链接]
221 0
[危机边缘].Fringe.S01D05.2008.BluRay.1080p.VC-1.DD.5.1-DIY@HDSky    39.45G



◎译  名 危机边缘/F档案:第1辑(港)
◎片  名 Fringe
◎年  代 2008
◎产  地 美国/加拿大
◎类  别 剧情/恐怖/悬疑/科幻/惊悚
◎语  言 英语
◎上映日期 2008-09-23(美国)
◎豆瓣评分 8.5/10 from 23,192 users
◎豆瓣链接 https://movie.douban.com/subject/2338071/
◎片  长 45分钟
◎导  演 艾利克斯·格雷夫斯 Alex Graves / Paul A. Edwards / 弗雷德·托耶 Fred Toye / 克里斯托弗·马西阿诺 Christopher Misiano / 比尔·艾格斯 Bill Eagles / 布拉德·安德森 Brad Anderson / 格温妮丝·豪特尔-佩顿 Gwyneth Horder-Payton / Michael Zinberg / 约翰·波尔森 John Polson / Norberto Barba / 阿齐瓦·高斯曼 Akiva Goldsman / 鲍比·罗斯 Bobby Roth
◎主  演 安娜·托芙 Anna Torv
      约翰·诺贝尔 John Noble
      乔舒亚·杰克逊 Joshua Jackson

◎简  介

  一架从汉堡飞往波士顿航班安全着陆,飞机上的机组成员和乘客却全部死亡。这起离奇案件揭开了一连串奇异、危险事件的序幕。
  FBI女探员奥莉维亚•德纳姆(Anna Torv 安娜•特弗 饰)精明干练,她刚刚和同事约翰•斯科特(Mark Valley 马克•维利 饰)确立恋爱关系,然而却在某次调查中痛失爱人。奥莉维亚随后被招入专门负责离奇案件的“边缘档案部门”。在此之后,各种匪夷所思事件接连发生,种种迹象表明,这一切似乎与被世人称为“当代爱因斯坦”的沃尔特•贝肖普博士(John Noble 饰)以及资力雄厚、背景神秘的巨力公司有关。随着调查的深入,事件背后的黑幕和秘密逐渐显露出来……

  1. DISC INFO:

  2. Disc Title:     S1_D1

  3. Disc Size:      38,667,360,436 bytes

  4. Protection:     AACS

  5. BD-Java:        No

  6. BDInfo:         0.5.8

  7. PLAYLIST REPORT:

  8. Name:                   00004.MPLS

  9. Length:                 3:52:09.999 (h:m:s.ms)

  10. Size:                   37,596,469,248 bytes

  11. Total Bitrate:          21.59 Mbps

  12. (*) Indicates included stream hidden by this playlist.

  13. VIDEO:

  14. Codec                   Bitrate             Description     

  15. -----                   -------             -----------     

  16. VC-1 Video              19699 kbps          1080p / 23.976 fps / 16:9 / Advanced Profile 3

  17. AUDIO:

  18. Codec                           Language        Bitrate         Description     

  19. -----                           --------        -------         -----------     

  20. Dolby Digital Audio             English         640 kbps        5.1 / 48 kHz / 640 kbps / DN -4dB

  21. * Dolby Digital Audio           English         192 kbps        2.0 / 48 kHz / 192 kbps / DN -4dB / Dolby Surround

  22. SUBTITLES:

  23. Codec                           Language        Bitrate         Description     

  24. -----                           --------        -------         -----------     

  25. Presentation Graphics           English         36.053 kbps                     

  26. Presentation Graphics           English         13.109 kbps                     

  27. Presentation Graphics           Chinese         29.750 kbps                     

  28. Presentation Graphics           Chinese         16.757 kbps                     

  29. FILES:

  30. Name            Time In         Length          Size            Total Bitrate   

  31. ----            -------         ------          ----            -------------   

  32. 00001.M2TS      0:00:00.000     1:21:38.977     13,468,391,424  21,994         

  33. 00011.M2TS      1:21:38.977     0:50:48.128     8,218,791,936   21,571         

  34. 00014.M2TS      2:12:27.105     0:50:27.441     8,144,855,040   21,523         

  35. 00006.M2TS      3:02:54.546     0:49:15.452     7,764,430,848   21,017
复制代码
























电驴链接
游客,如果您要查看本帖隐藏内容请回复

本帖子中包含更多资源

您需要 登录 才可以下载或查看,没有帐号?立即注册  

x

举报

回复
您需要登录后才可以回帖 登录 | 立即注册  

本版积分规则

高清剧集推荐

更多

高清MV/综艺

更多

客服中心

400-800-8888 周一至周日 8:30-20:30 仅收市话费

关注我们

  • 手机客户端
  • 关注官方微信
关闭

站长推荐上一条 /1 下一条

关于我们
关于我们
友情链接
联系我们
帮助中心
网友中心
购买须知
支付方式
服务支持
资源下载
售后服务
定制流程
关注我们
官方微博
官方空间
官方微信
快速回复 返回顶部 返回列表