开启左侧

[军舰岛].The.Battleship.Island.2017.1080p.BluRay.x264.DTS-WiKi[13.96G]

[复制链接]
1224 30
[军舰岛].The.Battleship.Island.2017.1080p.BluRay.x264.DTS-WiKi    13.96G



◎译  名 军舰岛/BattleshipIsland
◎片  名 군함도
◎年  代 2017
◎产  地 韩国
◎类  别 剧情/动作/历史
◎语  言 韩语
◎上映日期 2017-07-26(韩国)
◎豆瓣评分 7.7/10 from 20,658 users
◎豆瓣链接 https://movie.douban.com/subject/26445216/
◎片  长 132分钟/150分钟(导演版)
◎导  演 柳昇完 Seung-wan Ryoo
◎主  演 黄政民 Jeong-min Hwang
      苏志燮 Ji-seob So
      宋仲基 Joong-ki Song
      李贞贤 Jung-hyun Lee
      李璟荣 Kyeong-yeong Lee
      金秀安 Soo-an Kim
      尹敬浩 Yoon Kyung ho
      白承哲 Baek Seung-chul
      姜成澈
      金仁宇 Kim In-woo
      朴野性
      郑满植 Man-shik Jeong
      朴正范
      金敏载 Kim Min-jae

◎简  介

  影片讲述日本殖民时期,400余名朝鲜难民受到强征来到日本军舰岛,试图逃离以免遭到杀害的故事。

  1. Video

  2. ID                                       : 1

  3. Format                                   : AVC

  4. Format/Info                              : Advanced Video Codec

  5. Format profile                           : High@L4.1

  6. Format settings                          : CABAC / 5 Ref Frames

  7. Format settings, CABAC                   : Yes

  8. Format settings, ReFrames                : 5 frames

  9. Codec ID                                 : V_MPEG4/ISO/AVC

  10. Duration                                 : 2 h 12 min

  11. Bit rate                                 : 13.3 Mb/s

  12. Width                                    : 1 920 pixels

  13. Height                                   : 804 pixels

  14. Display aspect ratio                     : 2.40:1

  15. Frame rate mode                          : Constant

  16. Frame rate                               : 24.000 FPS

  17. Color space                              : YUV

  18. Chroma subsampling                       : 4:2:0

  19. Bit depth                                : 8 bits

  20. Scan type                                : Progressive

  21. Bits/(Pixel*Frame)                       : 0.359

  22. Stream size                              : 12.3 GiB (88%)

  23. Writing library                          : x264 core 124 r2197+666+28 3970b70 tMod+MixAQ [8-bit@4:2:0 X86_64]

  24. Encoding settings                        : cabac=1 / ref=5 / deblock=1:-3:-3 / analyse=0x3:0x133 / me=tesa / subme=11 / psy=1 / fade_compensate=0.00 / psy_rd=1.05:0.10 / mixed_ref=1 / me_range=32 / chroma_me=1 / trellis=2 / 8x8dct=1 / cqm=0 / deadzone=21,11 / fast_pskip=0 / chroma_qp_offset=-3 / threads=18 / sliced_threads=0 / nr=0 / decimate=0 / interlaced=0 / bluray_compat=0 / constrained_intra=0 / fgo=0 / bframes=12 / b_pyramid=2 / b_adapt=2 / b_bias=0 / direct=3 / weightb=1 / open_gop=0 / weightp=2 / keyint=600 / keyint_min=1 / scenecut=40 / intra_refresh=0 / rc_lookahead=80 / rc=crf / mbtree=0 / crf=17.5000 / qcomp=0.75 / qpmin=0 / qpmax=69 / qpstep=4 / vbv_maxrate=62500 / vbv_bufsize=50000 / crf_max=0.0 / nal_hrd=none / ip_ratio=1.25 / pb_ratio=1.15 / aq=3 / aq-strength=0.80 / aq-sensitivity=10.00 / aq-ifactor=1.00 / aq-pfactor=1.00 / aq-bfactor=1.00 / aq2=0 / zones=0,2777,crf=13/2778,5070,crf=15/5118,5581,crf=15/6031,6092,crf=15/6208,8043,crf=14/8299,8864,crf=14/9083,10551,crf=14/12504,12590,crf=15/17933,23143,crf=14/34397,34467,crf=15/35872,35915,crf=15/38243,38480,crf=16/41507,41538,crf=15/42001,42113,crf=15/47603,47652,crf=15/47708,47734,crf=15/49653,49816,crf=16/80388,80872,crf=15/92076,92317,crf=15/98060,99170,crf=15/100701,101521,crf=15/101675,102071,crf=14/102566,103449,crf=15/103692,105591,crf=15/105931,107810,crf=15/115776,116784,crf=15/117768,118484,crf=15/143325,143724,crf=15/144301,144748,crf=15/145029,145156,crf=15/145547,146277,crf=14/146489,146663,crf=14/146861,149470,crf=14/149535,149623,crf=14/152082,152960,crf=14/154264,154742,crf=15/155131,155245,crf=14/155742,156214,crf=14/156364,156465,crf=14/158791,159866,crf=14.5/184917,189709,crf=25

  25. Language                                 : Korean

  26. Default                                  : Yes

  27. Forced                                   : No



  28. Audio

  29. ID                                       : 2

  30. Format                                   : DTS

  31. Format/Info                              : Digital Theater Systems

  32. Codec ID                                 : A_DTS

  33. Duration                                 : 2 h 12 min

  34. Bit rate mode                            : Constant

  35. Bit rate                                 : 1 509 kb/s

  36. Channel(s)                               : 6 channels

  37. Channel positions                        : Front: L C R, Side: L R, LFE

  38. Sampling rate                            : 48.0 kHz

  39. Frame rate                               : 93.750 FPS (512 SPF)

  40. Bit depth                                : 24 bits

  41. Compression mode                         : Lossy

  42. Stream size                              : 1.39 GiB (10%)

  43. Language                                 : Korean

  44. Default                                  : Yes

  45. Forced                                   : No



  46. Text #1

  47. ID                                       : 3

  48. Format                                   : UTF-8

  49. Codec ID                                 : S_TEXT/UTF8

  50. Codec ID/Info                            : UTF-8 Plain Text

  51. Title                                    : CHS

  52. Language                                 : Chinese

  53. Default                                  : Yes

  54. Forced                                   : No



  55. Text #2

  56. ID                                       : 4

  57. Format                                   : UTF-8

  58. Codec ID                                 : S_TEXT/UTF8

  59. Codec ID/Info                            : UTF-8 Plain Text

  60. Title                                    : CHT

  61. Language                                 : Chinese

  62. Default                                  : No

  63. Forced                                   : No



  64. Menu

  65. 00:00:00.000                             : en:00:00:00.000

  66. 00:17:40.083                             : en:00:17:40.083

  67. 00:36:02.458                             : en:00:36:02.458

  68. 00:52:31.542                             : en:00:52:31.542

  69. 01:09:55.875                             : en:01:09:55.875

  70. 01:25:31.208                             : en:01:25:31.208

  71. 01:41:04.458                             : en:01:41:04.458

  72. 01:56:43.292                             : en:01:56:43.292
复制代码












BT种子
游客,如果您要查看本帖隐藏内容请回复



电驴链接
游客,如果您要查看本帖隐藏内容请回复

本帖子中包含更多资源

您需要 登录 才可以下载或查看,没有帐号?立即注册  

x

举报

回复

30 个评论

您需要登录后才可以回帖 登录 | 立即注册  

本版积分规则

VIP会员招募,免广告,免回复,免收费下载
搜索

高清剧集推荐

更多

高清MV/综艺

更多

客服中心

400-800-8888 周一至周日 8:30-20:30 仅收市话费

关注我们

  • 手机客户端
  • 关注官方微信
关闭

站长推荐上一条 /1 下一条

关于我们
关于我们
友情链接
联系我们
帮助中心
网友中心
购买须知
支付方式
服务支持
资源下载
售后服务
定制流程
关注我们
官方微博
官方空间
官方微信
快速回复 返回顶部 返回列表