开启左侧

[记忆重现].Rememory.2017.BluRay.1080p.AVC.DTS-HD.MA.5.1-lucky520@OurBits[22.98G]

[复制链接]
233 0
[记忆重现].Rememory.2017.BluRay.1080p.AVC.DTS-HD.MA.5.1-lucky520@OurBits   22.98G
1. 原盘后缀m-team,字幕来自字幕库,感谢分享
2. 替换简体双语、简体中文字幕,菜单未修改,右键菜单调出
3. 感谢Blues、Alpha、fantasymao、hzm55888的帮助
4. TMT5、Potplayer、PowerDVD测试播放通过,欢迎下载
5.狮门肉酱盘,保护已解除,无法追加字幕,请谨慎下载



◎译  名 记忆重现
◎片  名 Rememory
◎年  代 2017
◎产  地 美国/加拿大
◎类  别 剧情/科幻/悬疑
◎语  言 英语
◎上映日期 2017-01-25(圣丹斯电影节)/2017-08-24(美国网络)
◎IMDb评分  6.2/10 from 5,803 users
◎IMDb链接  http://www.imdb.com/title/tt2331047/
◎豆瓣评分 6.0/10 from 397 users
◎豆瓣链接 https://movie.douban.com/subject/20490909/
◎片  长 111分钟
◎导  演 马克·帕兰斯基 Mark Palansky
◎主  演 彼特·丁拉基 Peter Dinklage
      马特·埃利斯 Matt Ellis
      乔丹娜·拉吉 Jordana Largy
      马丁·唐文 Martin Donovan
      伊夫林·布洛初 Evelyne Brochu
      亨利·伊安·库斯克 Henry Ian Cusick
      安东·叶利钦 Anton Yelchin
      朱莉娅·奥蒙德 Julia Ormond
      格拉西·施耶 Gracyn Shinyei
      科林·劳伦斯 Colin Lawrence
      查德·克罗彻克 Chad Krowchuk
      凯特·贝特曼 Kate Bateman
      考特尼·里克特 Courtney Richter
      斯特凡尼亚·因德里凯托 Stefania Indelicato
      安德鲁·海尔 Andrew Herr
      凯莉·弗莱明 Carrie Fleming
      凯瑟琳·柯克帕特里克 Kathryn Kirkpatrick
      保罗·杜森基 Paul Dzenkiw
      玛雅·斯泰斯-史密斯 Maja Stace-Smith

◎简  介

  聪明的教授的寡妇绊倒了他的一个发明,能够记录和发挥一个人的记忆。

  1. DISC INFO:

  2. Disc Title:  Rememory 2017 BluRay 1080p AVC DTS-HD MA5.1-lucky520@OurBits

  3. Disc Size:      24,667,927,428 bytes

  4. Protection:     AACS

  5. BD-Java:        Yes

  6. BDInfo:         0.5.8

  7. PLAYLIST REPORT:

  8. Name:                   00415.MPLS

  9. Length:                 1:52:56.810 (h:m:s.ms)

  10. Size:                   19,587,600,384 bytes

  11. Total Bitrate:          23.12 Mbps

  12. VIDEO:

  13. Codec                   Bitrate             Description     

  14. -----                   -------             -----------     

  15. MPEG-4 AVC Video        17875 kbps          1080p / 23.976 fps / 16:9 / High Profile 4.1

  16. AUDIO:

  17. Codec                           Language        Bitrate         Description     

  18. -----                           --------        -------         -----------     

  19. DTS-HD Master Audio             English         3686 kbps       5.1 / 48 kHz / 3686 kbps / 24-bit (DTS Core: 5.1 / 48 kHz / 1509 kbps / 24-bit)

  20. Dolby Digital Audio             English         224 kbps        2.0 / 48 kHz / 224 kbps / Dolby Surround

  21. SUBTITLES:

  22. Codec                           Language        Bitrate         Description     

  23. -----                           --------        -------         -----------     

  24. Presentation Graphics           Chinese         42.178 kbps               英文替换为中英双语      

  25. Presentation Graphics           Chinese         22.803 kbps                   西班牙语替换为中文简体                                                      

  26. FILES:

  27. Name            Time In         Length          Size            Total Bitrate   

  28. ----            -------         ------          ----            -------------   

  29. 00511.M2TS      0:00:00.000     0:07:30.032     1,282,381,824   22,796         

  30. 00514.M2TS      0:07:30.032     0:01:34.218     264,732,672     22,478         

  31. 00505.M2TS      0:09:04.251     0:00:45.879     160,161,792     27,928         

  32. 00508.M2TS      0:09:50.130     0:03:10.732     582,100,992     24,415         

  33. 00512.M2TS      0:13:00.862     0:00:37.620     104,835,072     22,293         

  34. 00502.M2TS      0:13:38.483     0:01:47.524     257,716,224     19,175         

  35. 00517.M2TS      0:15:26.007     0:01:38.473     272,578,560     22,144         

  36. 00518.M2TS      0:17:04.480     0:12:58.360     2,164,985,856   22,252         

  37. 00509.M2TS      0:30:02.841     0:01:20.622     195,194,880     19,369         

  38. 00504.M2TS      0:31:23.464     0:00:50.925     161,298,432     25,339         

  39. 00516.M2TS      0:32:14.389     0:00:41.583     116,865,024     22,483         

  40. 00501.M2TS      0:32:55.973     0:26:56.072     5,062,883,328   25,063         

  41. 00520.M2TS      0:59:52.045     0:00:21.771     70,723,584      25,987         

  42. 00506.M2TS      1:00:13.817     0:01:23.958     247,283,712     23,562         

  43. 00515.M2TS      1:01:37.776     0:02:18.555     474,519,552     27,398         

  44. 00513.M2TS      1:03:56.331     0:00:20.895     67,246,080      25,745         

  45. 00519.M2TS      1:04:17.227     0:01:00.101     150,614,016     20,048         

  46. 00503.M2TS      1:05:17.329     0:01:41.434     301,510,656     23,780         

  47. 00507.M2TS      1:06:58.763     0:00:30.238     88,836,096      23,503         

  48. 00510.M2TS      1:07:29.002     0:44:27.748     7,499,563,008   22,490         

  49. 03312.M2TS      1:51:56.750     0:01:00.060     61,569,024      8,201
复制代码
























电驴链接
游客,如果您要查看本帖隐藏内容请回复

本帖子中包含更多资源

您需要 登录 才可以下载或查看,没有帐号?立即注册  

x

举报

回复
您需要登录后才可以回帖 登录 | 立即注册  

本版积分规则

高清剧集推荐

更多

高清MV/综艺

更多

客服中心

400-800-8888 周一至周日 8:30-20:30 仅收市话费

关注我们

  • 手机客户端
  • 关注官方微信
关闭

站长推荐上一条 /1 下一条

关于我们
关于我们
友情链接
联系我们
帮助中心
网友中心
购买须知
支付方式
服务支持
资源下载
售后服务
定制流程
关注我们
官方微博
官方空间
官方微信
快速回复 返回顶部 返回列表