开启左侧

淑女之家 Ladys.House.2015.4K.2160p.WASU.WEB-DL.x265.AAC-FLTTH 47.60G

[复制链接]
379 6

马上注册,结交更多高清迷友,分享更多资源,让你轻松玩转社区。

您需要 登录 才可以下载或查看,没有帐号?立即注册  

x


导演: 林清振
编剧: 郭廷波 / 秦飞 / 菲男 / 马雨默
主演: 韩雪 / 刘恩佑 / 马天宇 / 陈翔 / 毛晓彤
类型: 剧情 / 爱情 / 悬疑 / 家庭 / 犯罪
制片国家/地区: 中国大陆
语言: 汉语普通话
首播: 2014-05-07(中国大陆)
集数: 30
单集片长: 41分钟
又名: Lady's House
剧情简介:
    故事发生在上世纪三十年代的上海,周瑾(韩雪 饰)的父亲死于非命,意外得知自己神秘身世的周瑾发誓要查清父亲死亡的真相。周瑾同好友苏志文(马天宇 饰)一起,隐瞒了真实的身份,潜入了上海最声名显赫的沈家。
    沈家有四朵金花:外表优雅内心狠毒的大小姐方柔枝(王琳 饰)、热爱文艺有些神经质的二小姐方琪(徐百卉 饰)、出国留学命途多舛的三小姐曾凌戈(毛晓彤 饰)和相信金钱至上的四小姐曾雨衫(雷洋 饰)。随着时间的推移,周瑾渐渐发现,这个表面上光鲜亮丽的大家族,实际上早已经败絮其中,而众人极力想要隐藏的秘密,正是周瑾千方百计想要得到的真相。

  1. General
  2. Format                                   : MPEG-4
  3. Format profile                           : Base Media
  4. Codec ID                                 : isom (isom/iso2/mp41)
  5. File size                                : 1.6 GiB
  6. Duration                                 : 45 min
  7. Overall bit rate mode                    : Variable
  8. Overall bit rate                         : 5 000 kb/s

  9. Video
  10. ID                                       : 1
  11. Format                                   : HEVC
  12. Format/Info                              : High Efficiency Video Coding
  13. Format profile                           : Main@L5@Main
  14. Codec ID                                 : hev1
  15. Codec ID/Info                            : High Efficiency Video Coding
  16. Duration                                 : 45 min
  17. Bit rate                                 : 4 966 kb/s
  18. Width                                    : 3 840 pixels
  19. Height                                   : 2 160 pixels
  20. Display aspect ratio                     : 16:9
  21. Frame rate mode                          : Constant
  22. Frame rate                               : 25.000 FPS
  23. Color space                              : YUV
  24. Chroma subsampling                       : 4:2:0
  25. Bit depth                                : 8 bits
  26. Bits/(Pixel*Frame)                       : 0.024
  27. Stream size                              : 1.57 GiB (97%)

  28. Audio
  29. ID                                       : 2
  30. Format                                   : AAC
  31. Format/Info                              : Advanced Audio Codec
  32. Format profile                           : LC
  33. Codec ID                                 : 40
  34. Duration                                 : 45 min 10 s
  35. Bit rate mode                            : Variable
  36. Bit rate                                 : 125 kb/s
  37. Maximum bit rate                         : 130 kb/s
  38. Channel(s)                               : 2 channels
  39. Channel positions                        : Front: L R
  40. Sampling rate                            : 48.0 kHz
  41. Frame rate                               : 46.875 FPS (1024 spf)
  42. Compression mode                         : Lossy
  43. Stream size                              : 40.5 MiB (2%)
  44. Default                                  : Yes
  45. Alternate group                          : 1
复制代码

下载地址(30集):
https://pan.baidu.com/s/1jHZ3nJS

举报

回复

6 个评论

您需要登录后才可以回帖 登录 | 立即注册  

本版积分规则

高清剧集推荐

更多

高清MV/综艺

更多

客服中心

400-800-8888 周一至周日 8:30-20:30 仅收市话费

关注我们

  • 手机客户端
  • 关注官方微信
关闭

站长推荐上一条 /1 下一条

关于我们
关于我们
友情链接
联系我们
帮助中心
网友中心
购买须知
支付方式
服务支持
资源下载
售后服务
定制流程
关注我们
官方微博
官方空间
官方微信
快速回复 返回顶部 返回列表