开启左侧

大漠枪神 The.Desert.Sharpshooter.2014.1080p.PPTV.WEB-DL.x264.AAC-FLTTH 62.34G

[复制链接]
498 8


导演: 钱雁秋
编剧: 钱雁秋
主演: 张子健 / 曲栅栅 / 苑冉 / 淳于珊珊 / 钱雁秋
类型: 剧情 / 动作 / 悬疑
制片国家/地区: 中国大陆
语言: 汉语普通话
首播: 2014-02-24(中国大陆)
集数: 32
单集片长: 40分钟
简介:
    《大漠枪神》是燕双鹰系列剧第一部《英雄》的翻拍,讲述了身负血仇的青年燕双鹰孤身向盘踞在大漠的日伪余孽、土匪恶霸等恶势力挑战,身经百战,历尽凶险,终于成为大漠一号传奇英雄的故事。面对亲人朋友和无辜百姓一个个死去,燕双鹰毅然与解放军合作,最终走上革命道路,成为了真正的英雄。


  1. General
  2. Format                                   : MPEG-4
  3. Format profile                           : Base Media
  4. Codec ID                                 : isom (isom/avc1)
  5. File size                                : 2.00 GiB
  6. Duration                                 : 45 min
  7. Overall bit rate mode                    : Variable
  8. Overall bit rate                         : 6 000 kb/s

  9. Video
  10. ID                                       : 1
  11. Format                                   : AVC
  12. Format/Info                              : Advanced Video Codec
  13. Format profile                           : High@L4
  14. Format settings, CABAC                   : Yes
  15. Format settings, ReFrames                : 4 frames
  16. Codec ID                                 : avc1
  17. Codec ID/Info                            : Advanced Video Coding
  18. Duration                                 : 45 min 54 s
  19. Bit rate                                 : 6 000 kb/s
  20. Width                                    : 1 920 pixels
  21. Height                                   : 1 080 pixels
  22. Display aspect ratio                     : 16:9
  23. Frame rate mode                          : Constant
  24. Frame rate                               : 25.000 FPS
  25. Color space                              : YUV
  26. Chroma subsampling                       : 4:2:0
  27. Bit depth                                : 8 bits
  28. Scan type                                : Progressive
  29. Bits/(Pixel*Frame)                       : 0.116
  30. Stream size                              : 1.92 GiB (97%)

  31. Audio
  32. ID                                       : 2
  33. Format                                   : AAC
  34. Format/Info                              : Advanced Audio Codec
  35. Format profile                           : LC
  36. Codec ID                                 : 40
  37. Duration                                 : 45 min
  38. Bit rate mode                            : Variable
  39. Bit rate                                 : 150 kb/s
  40. Maximum bit rate                         : 176 kb/s
  41. Channel(s)                               : 2 channels
  42. Channel positions                        : Front: L R
  43. Sampling rate                            : 44.1 kHz
  44. Frame rate                               : 43.066 FPS (1024 spf)
  45. Compression mode                         : Lossy
  46. Stream size                              : 49.1 MiB (2%)
复制代码

下载地址(32集全):
https://pan.baidu.com/s/1kVJ2x07


本帖子中包含更多资源

您需要 登录 才可以下载或查看,没有帐号?立即注册  

x

举报

回复

8 个评论

您需要登录后才可以回帖 登录 | 立即注册  

本版积分规则

高清剧集推荐

更多

高清MV/综艺

更多

客服中心

400-800-8888 周一至周日 8:30-20:30 仅收市话费

关注我们

  • 手机客户端
  • 关注官方微信
关闭

站长推荐上一条 /1 下一条

关于我们
关于我们
友情链接
联系我们
帮助中心
网友中心
购买须知
支付方式
服务支持
资源下载
售后服务
定制流程
关注我们
官方微博
官方空间
官方微信
快速回复 返回顶部 返回列表