开启左侧

[龟蜜日记].My.Turtle.Buddy.2017.WEB-DL.4k.1080p.x264.AAC-HQC[35.88G]

[复制链接]
215 1
[龟蜜日记].My.Turtle.Buddy.2017.WEB-DL.4k.1080p.x264.AAC-HQC  35.88G



◎译  名 MyTurtleBuddy
◎片  名 龟蜜日记
◎年  代 2017
◎产  地 中国大陆
◎类  别 喜剧/爱情/奇幻
◎语  言 汉语普通话
◎上映日期 2017-11-14(中国大陆)
◎豆瓣评分 0/10 from 2 users
◎豆瓣链接 https://movie.douban.com/subject/27110282/
◎集  数 24
◎片  长 25分钟
◎导  演 孙嘉俊 Jiajun Sun
◎主  演 虞朗 Lang Yu
      张何昊臻
      赵英俊 Yingjun Zhao
      郭磊 Lei Guo
      马驰 Chi Ma
      孙艺宁 Yining Sun
      郑琳 Lin Zheng
      马歌 Ge Ma
      谢宏涛 Hongtao Xie
      徐瑾 Jin Xu
      王奕然 Yiran Wang

◎简  介

  一场车祸,让快递小哥陈小星的灵魂寄生在了娱乐大亨詹士邦(张何昊臻饰)的身上,而詹士邦因平时花心许诺,灵魂则寄生在了宠物龟贱贱身上。
  从穷屌丝变身高富帅的陈小星没有丝毫喜悦,却有大把麻烦。
  陈小星的女朋友维维(虞朗饰)是詹士邦的助理,却最讨厌詹士邦这种花心渣男。陈小星无法告诉维维真相,只能依靠詹士邦的身体重新追求维维,却遭遇詹士邦遗留的感情麻烦。在天使朱对友的帮助之下,陈小星终于重新跟维维在一起。
  皆大欢喜之时,陈小星被告知,他和詹士邦的灵魂随时都会换回来……

  1. General

  2. Format                         : MPEG-4

  3. Format profile                 : Base Media

  4. Codec ID                       : isom (isom/iso2/avc1/mp41)

  5. File size                      : 1.05 GiB

  6. Duration                       : 25 min 49 s

  7. Overall bit rate               : 5 807 kb/s

  8. Writing application            : Lavf57.41.100



  9. Video

  10. ID                             : 1

  11. Format                         : AVC

  12. Format/Info                    : Advanced Video Codec

  13. Format profile                 : High@L5.1

  14. Format settings                : CABAC / 3 Ref Frames

  15. Format settings, CABAC         : Yes

  16. Format settings, RefFrames     : 3 frames

  17. Codec ID                       : avc1

  18. Codec ID/Info                  : Advanced Video Coding

  19. Duration                       : 25 min 49 s

  20. Bit rate                       : 5 611 kb/s

  21. Width                          : 3 840 pixels

  22. Height                         : 2 160 pixels

  23. Display aspect ratio           : 16:9

  24. Frame rate mode                : Constant

  25. Frame rate                     : 25.000 FPS

  26. Color space                    : YUV

  27. Chroma subsampling             : 4:2:0

  28. Bit depth                      : 8 bits

  29. Scan type                      : Progressive

  30. Bits/(Pixel*Frame)             : 0.027

  31. Stream size                    : 1.01 GiB (97%)

  32. Color range                    : Limited

  33. Color primaries                : BT.709

  34. Transfer characteristics       : BT.709

  35. Matrix coefficients            : BT.709



  36. Audio

  37. ID                             : 2

  38. Format                         : AAC

  39. Format/Info                    : Advanced Audio Codec

  40. Format profile                 : LC

  41. Codec ID                       : mp4a-40-2

  42. Duration                       : 25 min 49 s

  43. Bit rate mode                  : Constant

  44. Bit rate                       : 192 kb/s

  45. Channel(s)                     : 2 channels

  46. Channel positions              : Front: L R

  47. Sampling rate                  : 44.1 kHz

  48. Frame rate                     : 43.066 FPS (1024 SPF)

  49. Compression mode               : Lossy

  50. Stream size                    : 35.1 MiB (3%)

  51. Default                        : Yes

  52. Alternate group                : 1
复制代码

  1. General

  2. Format                         : MPEG-4

  3. Format profile                 : Base Media

  4. Codec ID                       : isom (isom/iso2/avc1/mp41)

  5. File size                      : 550 MiB

  6. Duration                       : 27 min 17 s

  7. Overall bit rate               : 2 818 kb/s

  8. Writing application            : Lavf57.41.100



  9. Video

  10. ID                             : 1

  11. Format                         : AVC

  12. Format/Info                    : Advanced Video Codec

  13. Format profile                 : High@L4

  14. Format settings                : CABAC / 3 Ref Frames

  15. Format settings, CABAC         : Yes

  16. Format settings, RefFrames     : 3 frames

  17. Codec ID                       : avc1

  18. Codec ID/Info                  : Advanced Video Coding

  19. Duration                       : 27 min 17 s

  20. Bit rate                       : 2 622 kb/s

  21. Width                          : 1 920 pixels

  22. Height                         : 1 080 pixels

  23. Display aspect ratio           : 16:9

  24. Frame rate mode                : Constant

  25. Frame rate                     : 25.000 FPS

  26. Color space                    : YUV

  27. Chroma subsampling             : 4:2:0

  28. Bit depth                      : 8 bits

  29. Scan type                      : Progressive

  30. Bits/(Pixel*Frame)             : 0.051

  31. Stream size                    : 512 MiB (93%)

  32. Color range                    : Limited

  33. Color primaries                : BT.709

  34. Transfer characteristics       : BT.709

  35. Matrix coefficients            : BT.709



  36. Audio

  37. ID                             : 2

  38. Format                         : AAC

  39. Format/Info                    : Advanced Audio Codec

  40. Format profile                 : LC

  41. Codec ID                       : mp4a-40-2

  42. Duration                       : 27 min 17 s

  43. Bit rate mode                  : Constant

  44. Bit rate                       : 192 kb/s

  45. Channel(s)                     : 2 channels

  46. Channel positions              : Front: L R

  47. Sampling rate                  : 44.1 kHz

  48. Frame rate                     : 43.066 FPS (1024 SPF)

  49. Compression mode               : Lossy

  50. Stream size                    : 37.1 MiB (7%)

  51. Default                        : Yes

  52. Alternate group                : 1
复制代码










BT种子
游客,如果您要查看本帖隐藏内容请回复

本帖子中包含更多资源

您需要 登录 才可以下载或查看,没有帐号?立即注册  

x

举报

回复

1 个评论

您需要登录后才可以回帖 登录 | 立即注册  

本版积分规则

高清剧集推荐

更多

高清MV/综艺

更多

客服中心

400-800-8888 周一至周日 8:30-20:30 仅收市话费

关注我们

  • 手机客户端
  • 关注官方微信
关闭

站长推荐上一条 /1 下一条

关于我们
关于我们
友情链接
联系我们
帮助中心
网友中心
购买须知
支付方式
服务支持
资源下载
售后服务
定制流程
关注我们
官方微博
官方空间
官方微信
快速回复 返回顶部 返回列表